HDTV World Stage - MTV Presents Gibraltar Calling 2017 MTVHD 1080i HDTV DD2.0 H.264 CELOBRAZiL-HDMania

Discussion in 'HD Live Performances' started by CELOBRAZiL, Jan 13, 2018.

  1. CELOBRAZiL

    CELOBRAZiL Well-Known Member Capper V . I . P. Donor

    Joined:
    Oct 2, 2013
    Messages:
    4,250
    Likes Received:
    13,398
    World Stage - MTV Presents Gibraltar Calling 2017 MTVHD 1080i HDTV DD2.0 H.264 CELOBRAZiL-HDMania

    [​IMG]



    Format : MPEG-TS
    File size : 2.11 GiB
    Duration : 43mn 25s
    Overall bit rate mode : Variable
    Overall bit rate : 6 965 Kbps

    Video
    ID : 2760 (0xAC8)
    Menu ID : 5040 (0x13B0)
    Format : AVC
    Format/Info : Advanced Video Codec
    Format profile : [email protected]
    Format settings, CABAC : Yes
    Format settings, ReFrames : 3 frames
    Codec ID : 27
    Duration : 43mn 28s
    Bit rate : 6 427 Kbps
    Width : 1 920 pixels
    Height : 1 080 pixels
    Display aspect ratio : 16:9
    Frame rate : 29.970 fps
    Color space : YUV
    Chroma subsampling : 4:2:0
    Bit depth : 8 bits
    Scan type : MBAFF
    Scan order : Top Field First
    Bits/(Pixel*Frame) : 0.103
    Stream size : 1.95 GiB (92%)

    Audio
    ID : 2725 (0xAA5)
    Menu ID : 5040 (0x13B0)
    Format : AC-3
    Format/Info : Audio Coding 3
    Mode extension : CM (complete main)
    Format settings, Endianness : Big
    Codec ID : 129
    Duration : 43mn 28s
    Bit rate mode : Constant
    Bit rate : 192 Kbps
    Channel(s) : 2 channels
    Channel positions : Front: L R
    Sampling rate : 48.0 KHz
    Bit depth : 16 bits
    Compression mode : Lossy
    Stream size : 59.7 MiB (3%)
    Language : English

    :: SETLiST ::

    Charli XCX - Boys
    Charli XCX - After the Afterparty
    The Amazons - Junk Food Forever
    Clean Bandit Feat. Kirsten Joy - Symphony
    Kaiser Chiefs - Hole in my Soul
    Years & Years - King
    Tinie Tempah - Girls Like
    Tinie Tempah - Written in the Stars
    Craig David - Ain't Giving Up
    Bastille - Good Grief

    Link(s):
    Hidden Content:
    You must either reply or click 'Like' to see the hidden information contained here.
     
    Last edited: Jan 13, 2018
    rhea, apl3, yhkim and 2 others like this.
  2. Loading...


  3. CELOBRAZiL

    CELOBRAZiL Well-Known Member Capper V . I . P. Donor

    Joined:
    Oct 2, 2013
    Messages:
    4,250
    Likes Received:
    13,398
  4. blackford

    blackford Member

    Joined:
    Apr 18, 2017
    Messages:
    173
    Likes Received:
    19
    Thank you
     
    CELOBRAZiL likes this.
  5. Extazy4u2

    Extazy4u2 Well-Known Member

    Joined:
    Jan 26, 2017
    Messages:
    2,070
    Likes Received:
    208
    Thanks
     
    CELOBRAZiL likes this.
  6. blackford

    blackford Member

    Joined:
    Apr 18, 2017
    Messages:
    173
    Likes Received:
    19
    Is it possible to disable subtitles ?
     
  7. CELOBRAZiL

    CELOBRAZiL Well-Known Member Capper V . I . P. Donor

    Joined:
    Oct 2, 2013
    Messages:
    4,250
    Likes Received:
    13,398
    @blackford no, the subtitle is embedded in the video by HDTV operator... :(
     
    blackford likes this.
  8. blackford

    blackford Member

    Joined:
    Apr 18, 2017
    Messages:
    173
    Likes Received:
    19
    No problem. :) I was just asking if it is possible to disable it or not.
     
    CELOBRAZiL likes this.
  9. rhea

    rhea Well-Known Member

    Joined:
    Jan 6, 2014
    Messages:
    7,132
    Likes Received:
    795
    thank you
     
    CELOBRAZiL likes this.