MOVIE Voldemort: Origins of the Heir (MKV WEBRip 1080p AAC)

Discussion in 'Cinema Center' started by SGBRVevo, Jan 14, 2018 at 7:41 AM.

  1. SGBRVevo

    SGBRVevo Vituu

    Joined:
    Mar 16, 2017
    Messages:
    41
    Likes Received:
    24
    [​IMG]
    Code:
    General
    Unique ID                      : 314818000118396325354920364501565617802 (0xECD7BDC8DA2E362379222680611AB68A)
    Complete name                  : Voldemort.Origins.of.the.Heir.WEBRip.1080p.AAC.mkv
    Format                         : Matroska
    Format version                 : Version 4 / Version 2
    File size                      : 286 MiB
    Duration                       : 52 min 40 s
    Overall bit rate               : 759 kb/s
    
    Video
    ID                             : 1
    Format                         : AVC
    Format/Info                    : Advanced Video Codec
    Format profile                 : [email protected]
    Format settings, CABAC         : Yes
    Format settings, RefFrames     : 3 frames
    Codec ID                       : V_MPEG4/ISO/AVC
    Duration                       : 52 min 40 s
    Bit rate                       : 632 kb/s
    Width                          : 1 920 pixels
    Height                         : 1 080 pixels
    Display aspect ratio           : 16:9
    Frame rate mode                : Constant
    Frame rate                     : 25.000 FPS
    Color space                    : YUV
    Chroma subsampling             : 4:2:0
    Bit depth                      : 8 bits
    Scan type                      : Progressive
    Bits/(Pixel*Frame)             : 0.012
    Stream size                    : 238 MiB (83%)
    Default                        : Yes
    Forced                         : No
    Color range                    : Limited
    Color primaries                : BT.709
    Transfer characteristics       : BT.709
    Matrix coefficients            : BT.709
    
    Audio
    ID                             : 2
    Format                         : AAC
    Format/Info                    : Advanced Audio Codec
    Format profile                 : LC
    Codec ID                       : A_AAC
    Duration                       : 52 min 40 s
    Bit rate                       : 126 kb/s
    Channel(s)                     : 2 channels
    Channel positions              : Front: L R
    Sampling rate                  : 44.1 kHz
    Frame rate                     : 43.066 FPS (1024 SPF)
    Compression mode               : Lossy
    Stream size                    : 47.3 MiB (17%)
    Default                        : Yes
    Forced                         : No
    Hidden Content:
    You must reply before you can see the hidden data contained here.
     
  2. menzerin

    menzerin New Member

    Joined:
    Nov 20, 2017
    Messages:
    23
    Likes Received:
    1
  3. acciojay

    acciojay Member

    Joined:
    Apr 8, 2017
    Messages:
    103
    Likes Received:
    0
  4. CapnCodems

    CapnCodems Active Member

    Joined:
    Apr 25, 2017
    Messages:
    168
    Likes Received:
    46