SERIES The OA - Season 1 - 1080p Netflix WEBRip DD5.1 x264-DEFLATE

Discussion in 'Cinema Center' started by nyuszika7h, Jan 12, 2018.

  1. nyuszika7h

    nyuszika7h Well-Known Member

    Joined:
    May 18, 2016
    Messages:
    477
    Likes Received:
    700

    This release was losslessly captured from Netflix 4K and reencoded.

    [​IMG] [​IMG] [​IMG] [​IMG]

    Code:
    General
    Unique ID                                : 25951694715855239350547809116297760757 (0x13861D562B4A4EF1CCCA865706BE0FF5)
    Complete name                            : The.OA.S01E01.PROPER.1080p.WEBRip.X264-DEFLATE.mkv
    Format                                   : Matroska
    Format version                           : Version 4 / Version 2
    File size                                : 7.16 GiB
    Duration                                 : 1 h 10 min
    Overall bit rate                         : 14.5 Mb/s
    Encoded date                             : UTC 2016-12-21 00:01:01
    Writing application                      : mkvmerge v9.3.1 ('Mask Machine') 64bit
    Writing library                          : libebml v1.3.4 + libmatroska v1.4.5
    
    Video
    ID                                       : 1
    Format                                   : AVC
    Format/Info                              : Advanced Video Codec
    Format profile                           : [email protected]
    Format settings                          : CABAC / 4 Ref Frames
    Format settings, CABAC                   : Yes
    Format settings, ReFrames                : 4 frames
    Codec ID                                 : V_MPEG4/ISO/AVC
    Duration                                 : 1 h 10 min
    Bit rate                                 : 13.8 Mb/s
    Width                                    : 1 920 pixels
    Height                                   : 1 080 pixels
    Display aspect ratio                     : 16:9
    Frame rate mode                          : Constant
    Frame rate                               : 23.976 (24000/1001) FPS
    Color space                              : YUV
    Chroma subsampling                       : 4:2:0
    Bit depth                                : 8 bits
    Scan type                                : Progressive
    Bits/(Pixel*Frame)                       : 0.278
    Stream size                              : 6.83 GiB (95%)
    Writing library                          : x264 core 148 r2744+8 b97ae06 / tmod bb0ae40 X86_64
    Encoding settings                        : cabac=1 / ref=4 / deblock=1:-3:-3 / analyse=0x3:0x133 / me=umh / subme=11 / psy=1 / fade_compensate=0.00 / psy_rd=1.05:0.15 / mixed_ref=1 / me_range=48 / chroma_me=1 / trellis=2 / 8x8dct=1 / cqm=0 / deadzone=6,6 / fast_pskip=0 / chroma_qp_offset=-3 / threads=22 / lookahead_threads=5 / sliced_threads=0 / nr=0 / decimate=0 / interlaced=0 / bluray_compat=0 / constrained_intra=0 / fgo=0 / bframes=10 / b_pyramid=2 / b_adapt=2 / b_bias=0 / direct=3 / weightb=1 / open_gop=0 / weightp=2 / keyint=250 / keyint_min=23 / scenecut=40 / intra_refresh=0 / rc=crf / mbtree=0 / crf=19.0000 / qcomp=0.75 / qpmin=0:0:0 / qpmax=69:69:69 / qpstep=4 / ip_ratio=1.10 / pb_ratio=1.10 / aq=3:0.60 / aq-sensitivity=10.00 / aq-factor=1.00:1.00:1.00 / aq2=0 / aq3=0
    Language                                 : English
    Default                                  : Yes
    Forced                                   : No
    
    Audio
    ID                                       : 2
    Format                                   : AC-3
    Format/Info                              : Audio Coding 3
    Codec ID                                 : A_AC3
    Duration                                 : 1 h 10 min
    Bit rate mode                            : Constant
    Bit rate                                 : 384 kb/s
    Channel(s)                               : 6 channels
    Channel positions                        : Front: L C R, Side: L R, LFE
    Sampling rate                            : 48.0 kHz
    Frame rate                               : 31.250 FPS (1536 SPF)
    Bit depth                                : 16 bits
    Compression mode                         : Lossy
    Stream size                              : 194 MiB (3%)
    Language                                 : English
    Service kind                             : Complete Main
    Default                                  : Yes
    Forced                                   : No
    
    Text #1
    ID                                       : 3
    Format                                   : UTF-8
    Codec ID                                 : S_TEXT/UTF8
    Codec ID/Info                            : UTF-8 Plain Text
    Title                                    : English (Forced)
    Language                                 : English
    Default                                  : Yes
    Forced                                   : Yes
    
    Text #2
    ID                                       : 4
    Format                                   : UTF-8
    Codec ID                                 : S_TEXT/UTF8
    Codec ID/Info                            : UTF-8 Plain Text
    Title                                    : English
    Language                                 : English
    Default                                  : No
    Forced                                   : No
    
    Text #3
    ID                                       : 5
    Format                                   : UTF-8
    Codec ID                                 : S_TEXT/UTF8
    Codec ID/Info                            : UTF-8 Plain Text
    Title                                    : English (SDH)
    Language                                 : English
    Default                                  : No
    Forced                                   : No
    
    Text #4
    ID                                       : 6
    Format                                   : UTF-8
    Codec ID                                 : S_TEXT/UTF8
    Codec ID/Info                            : UTF-8 Plain Text
    Title                                    : French
    Language                                 : French
    Default                                  : No
    Forced                                   : No
    
    Text #5
    ID                                       : 7
    Format                                   : UTF-8
    Codec ID                                 : S_TEXT/UTF8
    Codec ID/Info                            : UTF-8 Plain Text
    Title                                    : German
    Language                                 : German
    Default                                  : No
    Forced                                   : No
    
    Text #6
    ID                                       : 8
    Format                                   : UTF-8
    Codec ID                                 : S_TEXT/UTF8
    Codec ID/Info                            : UTF-8 Plain Text
    Title                                    : Italian
    Language                                 : Italian
    Default                                  : No
    Forced                                   : No
    
    Text #7
    ID                                       : 9
    Format                                   : UTF-8
    Codec ID                                 : S_TEXT/UTF8
    Codec ID/Info                            : UTF-8 Plain Text
    Title                                    : Spanish
    Language                                 : Spanish
    Default                                  : No
    Forced                                   : No
    

    Code:
    The.OA.S01E01.PROPER.1080p.WEBRip.X264-DEFLATE.mkv
    The.OA.S01E02.PROPER.1080p.WEBRip.X264-DEFLATE.mkv
    The.OA.S01E03.INTERNAL.1080p.WEBRip.X264-DEFLATE.mkv
    The.OA.S01E04.PROPER.1080p.WEBRip.X264-DEFLATE.mkv
    The.OA.S01E05.1080p.WEBRip.X264-DEFLATE.mkv
    The.OA.S01E06.1080p.WEBRip.X264-DEFLATE.mkv
    The.OA.S01E07.1080p.WEBRip.X264-DEFLATE.mkv
    The.OA.S01E08.1080p.WEBRip.X264-DEFLATE.mkv
    

    Hidden Content:
    You must either reply or click 'Like' to see the hidden information contained here.
     
    Lucas oliveira likes this.
  2. Loading...


  3. cassiano7822

    cassiano7822 Member

    Joined:
    Jul 23, 2017
    Messages:
    36
    Likes Received:
    1
    THANKS THANKS THANKS
     
  4. cassiano7822

    cassiano7822 Member

    Joined:
    Jul 23, 2017
    Messages:
    36
    Likes Received:
    1
    What is the type of the file? rar?
     
  5. Amir454

    Amir454 New Member

    Joined:
    Jan 12, 2018
    Messages:
    1
    Likes Received:
    0
    Thank you so much!!
     
  6. nyuszika7h

    nyuszika7h Well-Known Member

    Joined:
    May 18, 2016
    Messages:
    477
    Likes Received:
    700
    They are .7z files. Just extract the first one with 7-Zip and it will do the rest.
     
  7. cassiano7822

    cassiano7822 Member

    Joined:
    Jul 23, 2017
    Messages:
    36
    Likes Received:
    1
    Thanks you. My download just finished and the quality is 100%. I just wanted a better audio bit rate, but that's fine
     
  8. nyuszika7h

    nyuszika7h Well-Known Member

    Joined:
    May 18, 2016
    Messages:
    477
    Likes Received:
    700
    @cassiano7822 The audio is untouched from Netflix, DD5.1 384 kbps is as good as it gets for shows that don't have Atmos. (If you see DD5.1 640 kbps for Netflix, that's just upconverted.)