HDTV The 53rd Annual Grammy Awards 2011 720p x264

Discussion in 'HD Live Performances' started by ScherzyBoy, Apr 12, 2016.

  1. ScherzyBoy

    ScherzyBoy Well-Known Member V . I . P. Uploader

    Joined:
    May 14, 2015
    Messages:
    1,083
    Likes Received:
    974
    [​IMG]

    General
    Unique ID : 254260241514551603391582749112710786984 (0xBF48BDC486AF8D6884928400A3E8EFA8)
    Complete name : F:\BaiduYunDownload\53rd.Annual.Grammy.Awards.HDTV.720P.x264-2HD.mkv
    Format : Matroska
    Format version : Version 2
    File size : 4.37 GiB
    Duration : 2h 28mn
    Overall bit rate : 4 210 Kbps
    Encoded date : UTC 2015-06-05 12:58:53
    Writing application : mkvmerge v2.9.9 ('Tutu') built on Nov 25 2009 21:13:32
    Writing library : libebml v0.7.9 + libmatroska v0.8.1

    Video
    ID : 1
    Format : AVC
    Format/Info : Advanced Video Codec
    Format profile : [email protected]
    Format settings, CABAC : Yes
    Format settings, ReFrames : 4 frames
    Codec ID : V_MPEG4/ISO/AVC
    Duration : 2h 28mn
    Bit rate : 3 824 Kbps
    Width : 1 280 pixels
    Height : 720 pixels
    Display aspect ratio : 16:9
    Frame rate mode : Constant
    Frame rate : 29.970 (30000/1001) fps
    Color space : YUV
    Chroma subsampling : 4:2:0
    Bit depth : 8 bits
    Scan type : Progressive
    Bits/(Pixel*Frame) : 0.138
    Stream size : 3.89 GiB (89%)
    Writing library : x264 core 102 r1666 d058f37
    Encoding settings : cabac=1 / ref=5 / deblock=1:0:0 / analyse=0x3:0x113 / me=umh / subme=8 / psy=1 / psy_rd=1.00:0.00 / mixed_ref=1 / me_range=16 / chroma_me=1 / trellis=1 / 8x8dct=1 / cqm=0 / deadzone=21,11 / fast_pskip=1 / chroma_qp_offset=-2 / threads=12 / sliced_threads=0 / nr=0 / decimate=1 / interlaced=0 / constrained_intra=0 / bframes=3 / b_pyramid=1 / b_adapt=1 / b_bias=0 / direct=1 / weightb=1 / open_gop=0 / weightp=2 / keyint=300 / keyint_min=30 / scenecut=40 / intra_refresh=0 / rc=2pass / mbtree=0 / bitrate=3824 / ratetol=1.0 / qcomp=0.60 / qpmin=10 / qpmax=51 / qpstep=4 / cplxblur=20.0 / qblur=0.5 / ip_ratio=1.40 / pb_ratio=1.30 / aq=1:1.00
    Language : English
    Default : Yes
    Forced : No

    Audio
    ID : 2
    Format : AC-3
    Format/Info : Audio Coding 3
    Mode extension : CM (complete main)
    Format settings, Endianness : Big
    Codec ID : A_AC3
    Duration : 2h 28mn
    Bit rate mode : Constant
    Bit rate : 384 Kbps
    Channel(s) : 6 channels
    Channel positions : Front: L C R, Side: L R, LFE
    Sampling rate : 48.0 KHz
    Frame rate : 31.250 fps (1536 spf)
    Compression mode : Lossy
    Stream size : 408 MiB (9%)
    Language : English
    Default : Yes
    Forced : No

    [​IMG] MEGA
    Hidden Content:
    You must reply before you can see the hidden data contained here.

    -----------------------------------------------------------------------------------------------------------------------------
    Download: The 52nd Annual Grammy Awards 2010 720p x264

     
    bijanbina, GEOLINK, mohtaj and 5 others like this.
  2. Loading...


  3. nickiexclusive

    nickiexclusive Video Maniac V . I . P. Uploader

    Joined:
    Sep 23, 2014
    Messages:
    2,411
    Likes Received:
    10,638
    thank you so much :)
     
  4. Ju55

    Ju55 Active Member

    Joined:
    Jul 10, 2015
    Messages:
    810
    Likes Received:
    142
    thank you
     
  5. Snorom6

    Snorom6 Well-Known Member V . I . P. Uploader

    Joined:
    Dec 17, 2015
    Messages:
    4,248
    Likes Received:
    5,298
  6. multimediafm

    multimediafm Well-Known Member Donor

    Joined:
    Mar 27, 2014
    Messages:
    11,054
    Likes Received:
    659
    Thanks :)
    The 53rd Annual Grammy Awards 2011 720p x264
     
  7. alex

    alex Well-Known Member

    Joined:
    Nov 21, 2013
    Messages:
    4,573
    Likes Received:
    369
    Thank you
     
  8. anticore

    anticore New Member

    Joined:
    Dec 5, 2015
    Messages:
    12
    Likes Received:
    0
    thanks
     
  9. nathancorsini

    nathancorsini Well-Known Member

    Joined:
    Jan 19, 2016
    Messages:
    284
    Likes Received:
    259
    thanks
     
  10. luismolinanyc

    luismolinanyc Member

    Joined:
    May 17, 2016
    Messages:
    635
    Likes Received:
    24
  11. scorpion20

    scorpion20 Active Member

    Joined:
    Sep 19, 2014
    Messages:
    378
    Likes Received:
    28
  12. bonny

    bonny Well-Known Member

    Joined:
    Jun 7, 2016
    Messages:
    1,400
    Likes Received:
    56
    thanks
     
  13. fahadking07

    fahadking07 New Member

    Joined:
    Aug 29, 2016
    Messages:
    1
    Likes Received:
    0
    Thank you so much!
     
  14. Adaros

    Adaros Active Member

    Joined:
    Jun 5, 2016
    Messages:
    484
    Likes Received:
    78
    Thanks
     
  15. Amir10

    Amir10 New Member

    Joined:
    Sep 28, 2016
    Messages:
    6
    Likes Received:
    1
    Tnx honey
     
  16. matthewzilla

    matthewzilla Member

    Joined:
    Jul 13, 2016
    Messages:
    46
    Likes Received:
    4
    Wow thanks! I was actually there in person so it'll be cool to watch it again
     
  17. selenagomez23

    selenagomez23 Member

    Joined:
    Aug 20, 2016
    Messages:
    191
    Likes Received:
    4
  18. selenagomez23

    selenagomez23 Member

    Joined:
    Aug 20, 2016
    Messages:
    191
    Likes Received:
    4
  19. ibrom

    ibrom Member

    Joined:
    Dec 9, 2016
    Messages:
    37
    Likes Received:
    0
    thanks
     
  20. am10

    am10 Member

    Joined:
    Oct 2, 2015
    Messages:
    61
    Likes Received:
    0
    Tnx honey
     
  21. VinnieVinVincent

    VinnieVinVincent New Member

    Joined:
    Apr 23, 2016
    Messages:
    8
    Likes Received:
    2
    [​IMG]

    General
    Unique ID : 254260241514551603391582749112710786984 (0xBF48BDC486AF8D6884928400A3E8EFA8)
    Complete name : F:\BaiduYunDownload\53rd.Annual.Grammy.Awards.HDTV.720P.x264-2HD.mkv
    Format : Matroska
    Format version : Version 2
    File size : 4.37 GiB
    Duration : 2h 28mn
    Overall bit rate : 4 210 Kbps
    Encoded date : UTC 2015-06-05 12:58:53
    Writing application : mkvmerge v2.9.9 ('Tutu') built on Nov 25 2009 21:13:32
    Writing library : libebml v0.7.9 + libmatroska v0.8.1

    Video
    ID : 1
    Format : AVC
    Format/Info : Advanced Video Codec
    Format profile : [email protected]
    Format settings, CABAC : Yes
    Format settings, ReFrames : 4 frames
    Codec ID : V_MPEG4/ISO/AVC
    Duration : 2h 28mn
    Bit rate : 3 824 Kbps
    Width : 1 280 pixels
    Height : 720 pixels
    Display aspect ratio : 16:9
    Frame rate mode : Constant
    Frame rate : 29.970 (30000/1001) fps
    Color space : YUV
    Chroma subsampling : 4:2:0
    Bit depth : 8 bits
    Scan type : Progressive
    Bits/(Pixel*Frame) : 0.138
    Stream size : 3.89 GiB (89%)
    Writing library : x264 core 102 r1666 d058f37
    Encoding settings : cabac=1 / ref=5 / deblock=1:0:0 / analyse=0x3:0x113 / me=umh / subme=8 / psy=1 / psy_rd=1.00:0.00 / mixed_ref=1 / me_range=16 / chroma_me=1 / trellis=1 / 8x8dct=1 / cqm=0 / deadzone=21,11 / fast_pskip=1 / chroma_qp_offset=-2 / threads=12 / sliced_threads=0 / nr=0 / decimate=1 / interlaced=0 / constrained_intra=0 / bframes=3 / b_pyramid=1 / b_adapt=1 / b_bias=0 / direct=1 / weightb=1 / open_gop=0 / weightp=2 / keyint=300 / keyint_min=30 / scenecut=40 / intra_refresh=0 / rc=2pass / mbtree=0 / bitrate=3824 / ratetol=1.0 / qcomp=0.60 / qpmin=10 / qpmax=51 / qpstep=4 / cplxblur=20.0 / qblur=0.5 / ip_ratio=1.40 / pb_ratio=1.30 / aq=1:1.00
    Language : English
    Default : Yes
    Forced : No

    Audio
    ID : 2
    Format : AC-3
    Format/Info : Audio Coding 3
    Mode extension : CM (complete main)
    Format settings, Endianness : Big
    Codec ID : A_AC3
    Duration : 2h 28mn
    Bit rate mode : Constant
    Bit rate : 384 Kbps
    Channel(s) : 6 channels
    Channel positions : Front: L C R, Side: L R, LFE
    Sampling rate : 48.0 KHz
    Frame rate : 31.250 fps (1536 spf)
    Compression mode : Lossy
    Stream size : 408 MiB (9%)
    Language : English
    Default : Yes
    Forced : No

    [​IMG] MEGA
    ***Hidden content cannot be quoted.***


    -----------------------------------------------------------------------------------------------------------------------------
    Download: The 52nd Annual Grammy Awards 2010 720p x264

    [/QUOTE]
     
    bijanbina likes this.