DVD5 Shakira - MTV Unplugged (2002)

Discussion in 'DVD' started by 777josem, Nov 5, 2015.

  1. 777josem

    777josem ProRes 1080p LPCM V . I . P.

    Joined:
    Sep 1, 2014
    Messages:
    3,737
    Likes Received:
    3,046
    [​IMG]
    [​IMG]

    Setlist:

    1.- Octavo Día
    2.- Si Te Vas
    3.- Dónde Están Los Ladrones?
    4.- Ciega, Sordomuda
    5.- Inevitable
    6.- Moscas En La Casa
    7.- Estoy Aquí
    8.- Tú
    9.- Sombra De Ti
    10.- No Creo
    11.-Ojos Así

    Making Of (½ hour program)

    [​IMG]
    Format : MPEG-PS
    File size : 4.08 GiB
    Duration : 73mn 47s
    Overall bit rate mode : Variable
    Overall bit rate : 24.0 Mbps

    Video
    ID : 224 (0xE0)
    Format : MPEG Video
    Format version : Version 2
    Format profile : [email protected]
    Format settings, BVOP : Yes
    Format settings, Matrix : Custom
    Format settings, GOP : M=3, N=15
    Format settings, picture structure : Frame
    Duration : 73mn 47s
    Bit rate mode : Variable
    Bit rate : 21.5 Mbps
    Maximum bit rate : 7 000 Kbps
    Width : 720 pixels
    Height : 480 pixels
    Display aspect ratio : 4:3
    Frame rate : 29.970 fps
    Standard : NTSC
    Color space : YUV
    Chroma subsampling : 4:2:0
    Bit depth : 8 bits
    Scan type : Interlaced
    Scan order : Top Field First
    Compression mode : Lossy
    Bits/(Pixel*Frame) : 2.077
    Time code of first frame : 00:59:59:00
    Time code source : Group of pictures header
    GOP, Open/Closed : Closed
    Stream size : 3.66 GiB (90%)

    Audio #1
    ID : 189 (0xBD)-129 (0x81)
    Format : AC-3
    Format/Info : Audio Coding 3
    Mode extension : CM (complete main)
    Format settings, Endianness : Big
    Muxing mode : DVD-Video
    Duration : 24mn 22s
    Bit rate mode : Constant
    Bit rate : 448 Kbps
    Channel(s) : 6 channels
    Channel positions : Front: L C R, Side: L R, LFE
    Sampling rate : 48.0 KHz
    Compression mode : Lossy
    Stream size : 78.1 MiB (2%)

    Audio #2
    ID : 189 (0xBD)-160 (0xA0)
    Format : PCM
    Format settings, Endianness : Big
    Format settings, Sign : Signed
    Muxing mode : DVD-Video
    Duration : 73mn 47s
    Bit rate mode : Constant
    Bit rate : 1 536 Kbps
    Channel(s) : 2 channels
    Sampling rate : 48.0 KHz
    Bit depth : 24 bits
    Stream size : 268 MiB (6%)
    5 Partes extraídas del DVD

    [​IMG]
    Hidden Content:
    You must reply before you can see the hidden data contained here.

    [​IMG]
    Hidden Content:
    You must reply before you can see the hidden data contained here.

    [​IMG]
    Hidden Content:
    You must reply before you can see the hidden data contained here.

    [​IMG]
    Hidden Content:
    You must reply before you can see the hidden data contained here.

    [​IMG]
    Hidden Content:
    You must reply before you can see the hidden data contained here.
     
    Last edited: Jun 5, 2017
    Suzuda, Lococesarea, sibe22 and 2 others like this.
  2. Loading...


  3. lpplus

    lpplus LP & MET Fan

    Joined:
    Sep 28, 2014
    Messages:
    812
    Likes Received:
    3,232
    Thank you
     
  4. theclimb

    theclimb Active Member

    Joined:
    Dec 16, 2014
    Messages:
    778
    Likes Received:
    141
    Thank you
     
  5. Shaki

    Shaki Member

    Joined:
    Mar 13, 2016
    Messages:
    280
    Likes Received:
    1
    عالییییییی بود عشقم
     
  6. multimediafm

    multimediafm Well-Known Member Donor

    Joined:
    Mar 27, 2014
    Messages:
    11,169
    Likes Received:
    675
    Thanks :)
    Shakira - MTV Unplugged (2002)
     
  7. tightshinypantsluvr34

    tightshinypantsluvr34 New Member

    Joined:
    Mar 16, 2016
    Messages:
    2
    Likes Received:
    0
    ummm...ok thanks how do i download, now that i have replied.:)
     
  8. tightshinypantsluvr34

    tightshinypantsluvr34 New Member

    Joined:
    Mar 16, 2016
    Messages:
    2
    Likes Received:
    0

    ok, i found out how to download the video. thank you for this upload of shakira, in tight shiny brown leather pants, very much appreciated.
     
  9. JUNINHOSZ

    JUNINHOSZ Well-Known Member

    Joined:
    May 23, 2014
    Messages:
    1,319
    Likes Received:
    36
    THANKS!
     
  10. luismolinanyc

    luismolinanyc Member

    Joined:
    May 17, 2016
    Messages:
    635
    Likes Received:
    24
  11. mahsa

    mahsa Member

    Joined:
    Mar 10, 2016
    Messages:
    295
    Likes Received:
    8
    gooooooooooooood love
     
  12. abcd12

    abcd12 New Member

    Joined:
    Jul 29, 2016
    Messages:
    1
    Likes Received:
    0
    wowwwwwwwwwwwww.....man thankxxxx
     
  13. shing000

    shing000 Active Member

    Joined:
    Mar 13, 2016
    Messages:
    991
    Likes Received:
    45
    gracias
     
  14. repj13

    repj13 Active Member

    Joined:
    Jul 9, 2016
    Messages:
    209
    Likes Received:
    46
    thaaajuu
     
  15. lim

    lim Well-Known Member

    Joined:
    Nov 8, 2013
    Messages:
    1,813
    Likes Received:
    36
    thank you
     
  16. dgnio

    dgnio Well-Known Member

    Joined:
    Jul 7, 2014
    Messages:
    1,875
    Likes Received:
    462
    Thank u very much
     
  17. 777josem

    777josem ProRes 1080p LPCM V . I . P.

    Joined:
    Sep 1, 2014
    Messages:
    3,737
    Likes Received:
    3,046
    :love:Shakira
     
  18. Jorge Barrionuevo

    Jorge Barrionuevo Well-Known Member

    Joined:
    Jun 9, 2015
    Messages:
    1,282
    Likes Received:
    508
    Muchas Gracias!
     
  19. sibe22

    sibe22 Member

    Joined:
    Nov 4, 2013
    Messages:
    102
    Likes Received:
    3
    tanxxxxxxxxxxxxx
     
  20. jloveres

    jloveres Active Member

    Joined:
    Jun 14, 2015
    Messages:
    528
    Likes Received:
    101
    thanks
     
  21. hanshermann

    hanshermann Well-Known Member Uploader

    Joined:
    Aug 24, 2016
    Messages:
    5,240
    Likes Received:
    4,939
    wahts taht