Rihanna - Take A Bow (MTVCH-1080i-DD5.1-Djodjara)-HDMania

Discussion in 'MTV HD' started by Djodjara, Feb 10, 2015.

  1. Djodjara

    Djodjara Gwen Fan Capper

    Joined:
    Sep 6, 2014
    Messages:
    860
    Likes Received:
    1,563
    Rihanna - Take A Bow (MTV CH-1080i-DD5.1-Djodjara)-HDMania

    [​IMG]
    [​IMG]

    General:
    ID : 1 (0x1)
    Format : MPEG-TS
    File size : 250 MiB
    Duration : 3mn 47s
    Overall bit rate mode : Variable
    Overall bit rate : 9 203 Kbps

    Video:
    ID : 592 (0x250)
    Menu ID : 1 (0x1)
    Format : AVC
    Format/Info : Advanced Video Codec
    Format profile : [email protected]
    Format settings, CABAC : Yes
    Format settings, ReFrames : 3 frames
    Format settings, GOP : M=4, N=28
    Codec ID : 27
    Duration : 3mn 47s
    Bit rate : 8 101 Kbps
    Width : 1 920 pixels
    Height : 1 080 pixels
    Display aspect ratio : 16:9
    Frame rate : 25.000 fps
    Standard : Component
    Color space : YUV
    Chroma subsampling : 4:2:0
    Bit depth : 8 bits
    Scan type : Interlaced
    Scan order : Top Field First
    Bits/(Pixel*Frame) : 0.156
    Stream size : 220 MiB (88%)
    Color primaries : BT.709
    Transfer characteristics : BT.709
    Matrix coefficients : BT.709
    Color range : Limited

    Audio #1:
    ID : 593 (0x251)
    Menu ID : 1 (0x1)
    Format : MPEG Audio
    Format version : Version 1
    Format profile : Layer 2
    Codec ID : 3
    Duration : 3mn 47s
    Bit rate mode : Constant
    Bit rate : 256 Kbps
    Channel(s) : 2 channels
    Sampling rate : 48.0 KHz
    Compression mode : Lossy
    Stream size : 6.95 MiB (3%)
    Language : German

    Audio #2:
    ID : 603 (0x25B)
    Menu ID : 1 (0x1)
    Format : AC-3
    Format/Info : Audio Coding 3
    Mode extension : CM (complete main)
    Format settings, Endianness : Big
    Codec ID : 6
    Duration : 3mn 47s
    Bit rate mode : Constant
    Bit rate : 384 Kbps
    Channel(s) : 6 channels
    Channel positions : Front: L C R, Side: L R, LFE
    Sampling rate : 48.0 KHz
    Bit depth : 16 bits
    Compression mode : Lossy
    Stream size : 10.4 MiB (4%)
    Language : German

    Hidden Content:
    You must reply before you can see the hidden data contained here.

     
    lyana94, johymbim, the dodgez and 4 others like this.
  2. Loading...


  3. rhea

    rhea Well-Known Member

    Joined:
    Jan 6, 2014
    Messages:
    7,147
    Likes Received:
    798
    thank you so much :)
     
  4. 777josem

    777josem ProRes 1080p LPCM V . I . P.

    Joined:
    Sep 1, 2014
    Messages:
    3,737
    Likes Received:
    3,045
    Version MTV :love: ... Thank you so much! :)
     
  5. Joseph

    Joseph Active Member

    Joined:
    Dec 10, 2013
    Messages:
    749
    Likes Received:
    169
    thank you!
     
  6. Albano Salinas

    Albano Salinas Well-Known Member

    Joined:
    Nov 6, 2014
    Messages:
    489
    Likes Received:
    1,101
    thanks so much!!! .-
     
  7. HDMjuzik

    HDMjuzik Member

    Joined:
    Feb 4, 2015
    Messages:
    59
    Likes Received:
    2
    you slay bro
     
    Djodjara likes this.
  8. Grailen

    Grailen Well-Known Member

    Joined:
    Oct 8, 2013
    Messages:
    615
    Likes Received:
    798
    thank you
     
  9. Dreamer

    Dreamer Lana Del Rey ♥ Halsey Capper V . I . P. Uploader

    Joined:
    Dec 4, 2014
    Messages:
    2,905
    Likes Received:
    4,598
    Thank you
     
  10. DETOX

    DETOX VIXX▿T-ARA▿B.A.P▿BTS▿JBJ▿WANNA ONE▿WINNER▿BIGBANG V . I . P. Uploader

    Joined:
    Feb 20, 2014
    Messages:
    3,940
    Likes Received:
    29,463
    Thank you so much!
     
  11. lucash

    lucash Member

    Joined:
    Nov 25, 2013
    Messages:
    213
    Likes Received:
    14
    thanks for Rihanna
     
  12. aaron

    aaron Active Member

    Joined:
    Dec 17, 2013
    Messages:
    231
    Likes Received:
    171
     
    the dodgez likes this.
  13. Crusha

    Crusha Well-Known Member Capper V . I . P.

    Joined:
    Oct 15, 2014
    Messages:
    2,358
    Likes Received:
    2,675
    thank you :)
     
  14. gh-sean

    gh-sean Member

    Joined:
    Mar 26, 2014
    Messages:
    178
    Likes Received:
    4
    thank you so much
     
  15. halt1001

    halt1001 Member

    Joined:
    Jul 15, 2014
    Messages:
    80
    Likes Received:
    15
    thank you
     
  16. Binh

    Binh Member

    Joined:
    Nov 18, 2013
    Messages:
    86
    Likes Received:
    1
    thank you very much
     
  17. johymbim

    johymbim Member

    Joined:
    Jul 30, 2014
    Messages:
    514
    Likes Received:
    16
    thanks thanks
     
  18. LLAVE1

    LLAVE1 Member

    Joined:
    Dec 4, 2013
    Messages:
    55
    Likes Received:
    7
    thank you for this
     
  19. 江雨燃双鱼

    江雨燃双鱼 Active Member

    Joined:
    Apr 5, 2014
    Messages:
    614
    Likes Received:
    43
    thank you for this
     
  20. mehmet

    mehmet Member

    Joined:
    Nov 22, 2013
    Messages:
    140
    Likes Received:
    3
    thanks a lot
     
  21. Antony

    Antony Active Member

    Joined:
    Nov 11, 2013
    Messages:
    986
    Likes Received:
    213
    thank you :)