BDRiP Rihanna - Loud Tour Live at the O2 2012 1080p MBluRay x264-SEMTEX

Discussion in 'BLU-RAY' started by hanshermann, Jun 30, 2017.

  1. hanshermann

    hanshermann Well-Known Member Uploader

    Joined:
    Aug 24, 2016
    Messages:
    5,222
    Likes Received:
    4,865
    [​IMG]
    Rihanna - Loud Tour Live at the O2 2012 1080p MBluRay x264-SEMTEX
    Code:
    General
    Unique ID                   : 229044252438350591508556627114207979294 (0xAC50518506E92519B0AEF86C7287A71E)
    Complete name               :Rihanna.Loud.Tour.Live.at.the.O2.2012.1080p.MBluRay.x264-SEMTEX.mkv
    Format                      : Matroska
    Format version              : Version 2
    File size                   : 6.55 GiB
    Duration                    : 1 h 49 min
    Overall bit rate            : 8 535 kb/s
    Movie name                  : WWW.DOWNLOADBOX.ME - sem-rltlato21080p
    Encoded date                : UTC 2012-12-12 06:29:15
    Writing application         : mkvmerge v5.8.0 ('No Sleep / Pillow') built on Sep  2 2012 15:37:04
    Writing library             : libebml v1.2.3 + libmatroska v1.3.0
    
    Video
    ID                          : 1
    Format                      : AVC
    Format/Info                 : Advanced Video Codec
    Format profile              : [email protected]
    Format settings, CABAC      : Yes
    Format settings, ReFrames   : 4 frames
    Codec ID                    : V_MPEG4/ISO/AVC
    Duration                    : 1 h 49 min
    Bit rate                    : 8 318 kb/s
    Width                       : 1 920 pixels
    Height                      : 1 080 pixels
    Display aspect ratio        : 16:9
    Frame rate mode             : Constant
    Frame rate                  : 23.976 (24000/1001) FPS
    Color space                 : YUV
    Chroma subsampling          : 4:2:0
    Bit depth                   : 8 bits
    Scan type                   : Progressive
    Bits/(Pixel*Frame)          : 0.167
    Stream size                 : 6.25 GiB (95%)
    Title                       : X264
    Writing library             : x264 core 129 r2230 1cffe9f
    
    Language                    : English
    Default                     : Yes
    Forced                      : No
    
    Audio
    ID                          : 2
    Format                      : AC-3
    Format/Info                 : Audio Coding 3
    Format settings, Endianness : Big
    Codec ID                    : A_AC3
    Duration                    : 1 h 49 min
    Bit rate mode               : Constant
    Bit rate                    : 224 kb/s
    Channel(s)                  : 6 channels
    Channel positions           : Front: L C R, Side: L R, LFE
    Sampling rate               : 48.0 kHz
    Frame rate                  : 31.250 FPS (1536 spf)
    Bit depth                   : 16 bits
    Compression mode            : Lossy
    Delay relative to video     : 18 ms
    Stream size                 : 176 MiB (3%)
    Title                       : AC3
    Language                    : English
    Service kind                : Complete Main
    Default                     : Yes
    Forced                      : No
    
    Hidden Content:
    You must either reply or click 'Like' to see the hidden information contained here.
     
    Last edited: Sep 1, 2017
    maxmax, ianarturis, kweenbey and 18 others like this.
  2. Loading...


  3. lim

    lim Well-Known Member

    Joined:
    Nov 8, 2013
    Messages:
    1,813
    Likes Received:
    36
    thanks
     
  4. murayan_k

    murayan_k Active Member

    Joined:
    Dec 12, 2016
    Messages:
    107
    Likes Received:
    35
    thanks
     
  5. UnitedReleases

    UnitedReleases Well-Known Member

    Joined:
    Jan 10, 2016
    Messages:
    448
    Likes Received:
    740
    Rihanna - Loud Tour Live at the O2
     
  6. exterminador

    exterminador Well-Known Member

    Joined:
    Jul 3, 2016
    Messages:
    1,858
    Likes Received:
    171
  7. CELOBRAZiL

    CELOBRAZiL Well-Known Member Capper V . I . P. Donor

    Joined:
    Oct 2, 2013
    Messages:
    4,248
    Likes Received:
    13,374
    Thank you so much! :)
     
  8. benja

    benja Well-Known Member

    Joined:
    Jan 8, 2014
    Messages:
    1,346
    Likes Received:
    84
    Thank you so much!
     
  9. buionightlife

    buionightlife Member

    Joined:
    Dec 4, 2016
    Messages:
    39
    Likes Received:
    3
  10. ricanaire

    ricanaire Member

    Joined:
    Sep 7, 2016
    Messages:
    34
    Likes Received:
    3
    ayeeee im also looking for the good girl gone bad tour, any chance for a blu ray rip?
     
    hanshermann likes this.
  11. hanshermann

    hanshermann Well-Known Member Uploader

    Joined:
    Aug 24, 2016
    Messages:
    5,222
    Likes Received:
    4,865
  12. yoereyesr21

    yoereyesr21 Active Member

    Joined:
    Mar 12, 2016
    Messages:
    206
    Likes Received:
    28
  13. princebasil

    princebasil Member

    Joined:
    Jul 4, 2017
    Messages:
    338
    Likes Received:
    19
    Thank you!
     
  14. korani

    korani Member

    Joined:
    Nov 27, 2016
    Messages:
    271
    Likes Received:
    5
    thank you
     
  15. mizdot

    mizdot Well-Known Member

    Joined:
    Nov 13, 2014
    Messages:
    1,969
    Likes Received:
    54
    tnx man
     
  16. Bouncer

    Bouncer Member

    Joined:
    Jan 5, 2016
    Messages:
    509
    Likes Received:
    13
    tks tks
     
  17. xXSHADOW

    xXSHADOW Member

    Joined:
    Jul 27, 2017
    Messages:
    78
    Likes Received:
    1
  18. kismakk

    kismakk Member

    Joined:
    Jul 2, 2014
    Messages:
    448
    Likes Received:
    11
    thanks
     
  19. Huano7

    Huano7 New Member

    Joined:
    Jun 17, 2017
    Messages:
    5
    Likes Received:
    0
    thankkjs
     
  20. kifflom

    kifflom Member

    Joined:
    Jun 24, 2017
    Messages:
    43
    Likes Received:
    1
    Thank you
     
  21. gaelloko

    gaelloko Active Member

    Joined:
    Sep 27, 2014
    Messages:
    186
    Likes Received:
    55
    thanks![​IMG]
    Rihanna - Loud Tour Live at the O2 2012 1080p MBluRay x264-SEMTEX
    Code:
    General
    Unique ID                   : 229044252438350591508556627114207979294 (0xAC50518506E92519B0AEF86C7287A71E)
    Complete name               :Rihanna.Loud.Tour.Live.at.the.O2.2012.1080p.MBluRay.x264-SEMTEX.mkv
    Format                      : Matroska
    Format version              : Version 2
    File size                   : 6.55 GiB
    Duration                    : 1 h 49 min
    Overall bit rate            : 8 535 kb/s
    Movie name                  : WWW.DOWNLOADBOX.ME - sem-rltlato21080p
    Encoded date                : UTC 2012-12-12 06:29:15
    Writing application         : mkvmerge v5.8.0 ('No Sleep / Pillow') built on Sep  2 2012 15:37:04
    Writing library             : libebml v1.2.3 + libmatroska v1.3.0
    
    Video
    ID                          : 1
    Format                      : AVC
    Format/Info                 : Advanced Video Codec
    Format profile              : [email protected]
    Format settings, CABAC      : Yes
    Format settings, ReFrames   : 4 frames
    Codec ID                    : V_MPEG4/ISO/AVC
    Duration                    : 1 h 49 min
    Bit rate                    : 8 318 kb/s
    Width                       : 1 920 pixels
    Height                      : 1 080 pixels
    Display aspect ratio        : 16:9
    Frame rate mode             : Constant
    Frame rate                  : 23.976 (24000/1001) FPS
    Color space                 : YUV
    Chroma subsampling          : 4:2:0
    Bit depth                   : 8 bits
    Scan type                   : Progressive
    Bits/(Pixel*Frame)          : 0.167
    Stream size                 : 6.25 GiB (95%)
    Title                       : X264
    Writing library             : x264 core 129 r2230 1cffe9f
    
    Language                    : English
    Default                     : Yes
    Forced                      : No
    
    Audio
    ID                          : 2
    Format                      : AC-3
    Format/Info                 : Audio Coding 3
    Format settings, Endianness : Big
    Codec ID                    : A_AC3
    Duration                    : 1 h 49 min
    Bit rate mode               : Constant
    Bit rate                    : 224 kb/s
    Channel(s)                  : 6 channels
    Channel positions           : Front: L C R, Side: L R, LFE
    Sampling rate               : 48.0 kHz
    Frame rate                  : 31.250 FPS (1536 spf)
    Bit depth                   : 16 bits
    Compression mode            : Lossy
    Delay relative to video     : 18 ms
    Stream size                 : 176 MiB (3%)
    Title                       : AC3
    Language                    : English
    Service kind                : Complete Main
    Default                     : Yes
    Forced                      : No
    
    ***Hidden content cannot be quoted.***[/QUOTE]