Rihanna - Kiss It Better MTVHD 1080i HDTV DD2.0 H.264 CELOBRAZiL-HDMania

Discussion in 'MTV HD' started by CELOBRAZiL, Feb 3, 2017.

  1. CELOBRAZiL

    CELOBRAZiL Well-Known Member Capper V . I . P. Donor

    Joined:
    Oct 2, 2013
    Messages:
    4,256
    Likes Received:
    13,430
    Rihanna - Kiss It Better MTVHD 1080i HDTV DD2.0 H.264 CELOBRAZiL-HDMania

    [​IMG]



    Format : MPEG-TS
    File size : 155 MiB
    Duration : 4mn 3s
    Overall bit rate mode : Variable
    Overall bit rate : 5 346 Kbps

    Video
    ID : 2760 (0xAC8)
    Menu ID : 1 (0x1)
    Format : AVC
    Format/Info : Advanced Video Codec
    Format profile : [email protected]
    Format settings, CABAC : Yes
    Format settings, ReFrames : 3 frames
    Codec ID : 27
    Duration : 4mn 6s
    Bit rate : 4 694 Kbps
    Width : 1 920 pixels
    Height : 1 080 pixels
    Display aspect ratio : 16:9
    Frame rate : 29.970 fps
    Color space : YUV
    Chroma subsampling : 4:2:0
    Bit depth : 8 bits
    Scan type : MBAFF
    Scan order : Top Field First
    Bits/(Pixel*Frame) : 0.076
    Stream size : 138 MiB (89%)

    Audio #1
    ID : 2724 (0xAA4)
    Menu ID : 1 (0x1)
    Format : AC-3
    Format/Info : Audio Coding 3
    Mode extension : CM (complete main)
    Format settings, Endianness : Big
    Codec ID : 6
    Duration : 4mn 6s
    Bit rate mode : Constant
    Bit rate : 192 Kbps
    Channel(s) : 2 channels
    Channel positions : Front: L R
    Sampling rate : 48.0 KHz
    Bit depth : 16 bits
    Compression mode : Lossy
    Stream size : 5.63 MiB (4%)
    Language : English

    Audio #2
    ID : 2725 (0xAA5)
    Menu ID : 1 (0x1)
    Format : AC-3
    Format/Info : Audio Coding 3
    Mode extension : CM (complete main)
    Format settings, Endianness : Big
    Codec ID : 6
    Duration : 4mn 6s
    Bit rate mode : Constant
    Bit rate : 192 Kbps
    Channel(s) : 2 channels
    Channel positions : Front: L R
    Sampling rate : 48.0 KHz
    Bit depth : 16 bits
    Compression mode : Lossy
    Stream size : 5.63 MiB (4%)
    Language : English

    Link(s):
    Hidden Content:
    You must either reply or click 'Like' to see the hidden information contained here.
     
    Last edited: Apr 18, 2017
    Neoxyh, brownbradpitt613, rcj and 9 others like this.
  2. Loading...


  3. miyara

    miyara My reputation died in this forum V . I . P. Uploader

    Joined:
    Feb 21, 2016
    Messages:
    1,034
    Likes Received:
    3,019
    Thank u so much for Queen Riri.:cry: :love:
     
    CELOBRAZiL likes this.
  4. Dreamer

    Dreamer Lana Del Rey ♥ Halsey Capper V . I . P. Uploader

    Joined:
    Dec 4, 2014
    Messages:
    2,905
    Likes Received:
    4,598
    Thank you!
     
    CELOBRAZiL likes this.
  5. Bitchesaintshit

    Bitchesaintshit New Member

    Joined:
    Jan 21, 2017
    Messages:
    10
    Likes Received:
    1
    Thanks
     
    CELOBRAZiL likes this.
  6. Bitchesaintshit

    Bitchesaintshit New Member

    Joined:
    Jan 21, 2017
    Messages:
    10
    Likes Received:
    1
    Thanks
     
  7. hanshermann

    hanshermann Well-Known Member Uploader

    Joined:
    Aug 24, 2016
    Messages:
    5,240
    Likes Received:
    4,939
    wahts taht
     
  8. Pedro16

    Pedro16 Member

    Joined:
    Jan 16, 2017
    Messages:
    180
    Likes Received:
    7
    Thanks!!!
     
    CELOBRAZiL likes this.
  9. seregil

    seregil Member

    Joined:
    Sep 5, 2014
    Messages:
    110
    Likes Received:
    1
    thanks
     
    CELOBRAZiL likes this.
  10. Tiamors

    Tiamors New Member

    Joined:
    Mar 26, 2017
    Messages:
    15
    Likes Received:
    1
    Thanks.
     
    CELOBRAZiL likes this.
  11. brownbradpitt613

    brownbradpitt613 Member

    Joined:
    Sep 3, 2017
    Messages:
    636
    Likes Received:
    9
    thanks for this song
     
    CELOBRAZiL likes this.
  12. VIVAfan1991

    VIVAfan1991 Active Member

    Joined:
    Jan 11, 2018
    Messages:
    180
    Likes Received:
    28
    THANKS
     
    CELOBRAZiL likes this.