Oasis - Whatever (MTVPulse-1080i-DD2.0)-Olgold

Discussion in 'MTV PULSE HD' started by Olgold, Aug 27, 2015.

  1. Olgold

    Olgold Well-Known Member Capper

    Joined:
    Aug 19, 2015
    Messages:
    436
    Likes Received:
    1,721
    [​IMG]
    General
    Format : MPEG-TS
    File size : 257 MiB
    Duration : 3mn 53s
    Overall bit rate mode : Variable
    Overall bit rate : 9 223 Kbps

    Video
    Format : AVC
    Format/Info : Advanced Video Codec
    Format profile : [email protected]
    Format settings, CABAC : Yes
    Format settings, ReFrames : 4 frames
    Duration : 3mn 53s
    Bit rate : 8 508 Kbps
    Width : 1 920 pixels
    Height : 1 080 pixels
    Display aspect ratio : 16:9
    Frame rate : 25.000 fps
    Standard : Component
    Color space : YUV
    Chroma subsampling : 4:2:0
    Bit depth : 8 bits
    Scan type : MBAFF
    Scan order : Top Field First
    Bits/(Pixel*Frame) : 0.164
    Stream size : 237 MiB (92%)
    Color range : Limited

    Audio
    Format : AC-3
    Format/Info : Audio Coding 3
    Mode extension : CM (complete main)
    Format settings, Endianness : Big
    Duration : 3mn 53s
    Bit rate mode : Constant
    Bit rate : 256 Kbps
    Channel(s) : 2 channels
    Channel positions : Front: L R
    Sampling rate : 48.0 KHz
    Compression mode : Lossy
    Delay relative to video : 152ms
    Stream size : 7.13 MiB (3%)
    Language : French

    Hidden Content:
    You must reply before you can see the hidden data contained here.
     
    Albano Salinas, rhea and CELOBRAZiL like this.
  2. Loading...


  3. rhea

    rhea Well-Known Member

    Joined:
    Jan 6, 2014
    Messages:
    7,132
    Likes Received:
    795
    thank you so much
     
  4. Flaxdevil

    Flaxdevil Member

    Joined:
    May 25, 2014
    Messages:
    285
    Likes Received:
    12
    thanks!
     
  5. cero

    cero Member

    Joined:
    Nov 1, 2013
    Messages:
    131
    Likes Received:
    1
    good song!!
     
  6. tapions

    tapions Active Member

    Joined:
    Aug 30, 2016
    Messages:
    914
    Likes Received:
    79
    gracias
     
  7. millerfame73

    millerfame73 New Member

    Joined:
    Aug 9, 2017
    Messages:
    20
    Likes Received:
    5
    thank you very much
     
  8. Albano Salinas

    Albano Salinas Well-Known Member

    Joined:
    Nov 6, 2014
    Messages:
    489
    Likes Received:
    1,099
    thanks so much!
     
  9. CristianMatias

    CristianMatias HIGH DEFINITION

    Joined:
    Sep 17, 2016
    Messages:
    883
    Likes Received:
    25
    orgullosamente asombrado de haber Canciones Tan Hermosas en Especial...
     
  10. bobuk8888

    bobuk8888 Member

    Joined:
    Jul 15, 2016
    Messages:
    125
    Likes Received:
    3
    cheers