MTV Asks One Direction 576p SDMania

Discussion in 'SD Live Performances' started by Dfrazzer, Mar 31, 2015.

  1. Dfrazzer

    Dfrazzer Super Moderator Staff Member Super Moderator Capper V . I . P. Donor

    Joined:
    Nov 4, 2013
    Messages:
    4,972
    Likes Received:
    10,860
    [​IMG] [​IMG] [​IMG] [​IMG] [​IMG] [​IMG]

    Code:
    General
    ID : 1 (0x1)
    Complete name : C:\Users\Dfrazzer\Desktop\MTV Asks One Direction 576p SDMania.ts
    Format : MPEG-TS
    File size : 765 MiB
    Duration : 21mn 29s
    Overall bit rate mode : Variable
    Overall bit rate : 4 975 Kbps
    
    Video
    ID : 100 (0x64)
    Menu ID : 2 (0x2)
    Format : AVC
    Format/Info : Advanced Video Codec
    Format profile : [email protected]
    Format settings, CABAC : Yes
    Format settings, ReFrames : 3 frames
    Codec ID : 27
    Duration : 21mn 29s
    Bit rate mode : Variable
    Bit rate : 4 063 Kbps
    Maximum bit rate : 8 000 Kbps
    Width : 1 024 pixels
    Height : 576 pixels
    Display aspect ratio : 16:9
    Frame rate : 25.000 fps
    Standard : PAL
    Color space : YUV
    Chroma subsampling : 4:2:0
    Bit depth : 8 bits
    Scan type : Interlaced
    Scan order : Top Field First
    Bits/(Pixel*Frame) : 0.276
    Stream size : 624 MiB (82%)
    
    Audio #1
    ID : 101 (0x65)
    Menu ID : 2 (0x2)
    Format : AAC
    Format/Info : Advanced Audio Codec
    Format version : Version 4
    Format profile : LC
    Muxing mode : ADTS
    Codec ID : 15
    Duration : 21mn 29s
    Bit rate mode : Variable
    Bit rate : 220 Kbps
    Channel(s) : 2 channels
    Channel positions : Front: L R
    Sampling rate : 48.0 KHz
    Compression mode : Lossy
    Stream size : 33.8 MiB (4%)
    
    Audio #2
    ID : 102 (0x66)
    Menu ID : 2 (0x2)
    Format : AAC
    Format/Info : Advanced Audio Codec
    Format version : Version 4
    Format profile : LC
    Muxing mode : ADTS
    Codec ID : 15
    Duration : 21mn 29s
    Bit rate mode : Variable
    Bit rate : 220 Kbps
    Channel(s) : 2 channels
    Channel positions : Front: L R
    Sampling rate : 48.0 KHz
    Compression mode : Lossy
    Stream size : 33.8 MiB (4%)
    
    Audio #3
    ID : 103 (0x67)
    Menu ID : 2 (0x2)
    Format : AAC
    Format/Info : Advanced Audio Codec
    Format version : Version 4
    Format profile : LC
    Muxing mode : ADTS
    Codec ID : 15
    Duration : 21mn 29s
    Bit rate mode : Variable
    Bit rate : 220 Kbps
    Channel(s) : 2 channels
    Channel positions : Front: L R
    Sampling rate : 48.0 KHz
    Compression mode : Lossy
    Stream size : 33.8 MiB (4%)
    
    Hidden Content:
    You must reply before you can see the hidden data contained here.
    Capped by me.
     
    Colin01, Katheryn and 1D4EVER like this.
  2. Loading...


  3. usefuldo

    usefuldo Active Member

    Joined:
    Dec 19, 2013
    Messages:
    433
    Likes Received:
    30
    thanks loads!
     
  4. 1D4EVER

    1D4EVER Active Member

    Joined:
    Dec 22, 2014
    Messages:
    351
    Likes Received:
    22
    Thank you so much!!!:victory::victory:
     
  5. nanana

    nanana Member

    Joined:
    Dec 31, 2014
    Messages:
    67
    Likes Received:
    1
    thank you!
     
  6. ytyh

    ytyh Member

    Joined:
    Mar 30, 2014
    Messages:
    432
    Likes Received:
    4
    thank you
     
  7. chokienhen

    chokienhen Member

    Joined:
    Dec 2, 2015
    Messages:
    67
    Likes Received:
    0
  8. Snorom6

    Snorom6 Well-Known Member V . I . P. Uploader

    Joined:
    Dec 17, 2015
    Messages:
    4,248
    Likes Received:
    5,310
  9. Steliana

    Steliana Member

    Joined:
    Jul 12, 2016
    Messages:
    79
    Likes Received:
    5
    thanks
     
  10. Jessica2jung

    Jessica2jung Member

    Joined:
    Aug 21, 2017
    Messages:
    421
    Likes Received:
    3
  11. flickervinyl

    flickervinyl Active Member

    Joined:
    Nov 28, 2017
    Messages:
    117
    Likes Received:
    32
    :sunglasses:
     
  12. Slytherina

    Slytherina Member

    Joined:
    Dec 16, 2017
    Messages:
    62
    Likes Received:
    1
    thank you
     
  13. Lucky

    Lucky Active Member

    Joined:
    Sep 26, 2016
    Messages:
    392
    Likes Received:
    37
    thanks
     
  14. rasputin

    rasputin Active Member

    Joined:
    Dec 9, 2015
    Messages:
    367
    Likes Received:
    26
    many th
    thanx