MTV Asks - Enrique Iglesias 1080i

Discussion in 'Interviews / TV shows / Others' started by Dfrazzer, Nov 30, 2014.

  1. Dfrazzer

    Dfrazzer Super Moderator Staff Member Super Moderator Capper V . I . P. Donor

    Joined:
    Nov 4, 2013
    Messages:
    4,972
    Likes Received:
    10,863
    Requested by: alex

    [​IMG] [​IMG]

    Code:
    General
    ID : 1 (0x1)
    Complete name : C:\Users\Dfrazzer\Desktop\MTV Asks - Enrique Iglesias 1080i.ts
    Format : MPEG-TS
    File size : 1.98 GiB
    Duration : 21mn 32s
    Overall bit rate mode : Variable
    Overall bit rate : 13.2 Mbps
    
    Video
    ID : 100 (0x64)
    Menu ID : 1 (0x1)
    Format : AVC
    Format/Info : Advanced Video Codec
    Format profile : [email protected]
    Format settings, CABAC : Yes
    Format settings, ReFrames : 2 frames
    Codec ID : 27
    Duration : 21mn 32s
    Bit rate mode : Variable
    Bit rate : 11.8 Mbps
    Maximum bit rate : 24.0 Mbps
    Width : 1 920 pixels
    Height : 1 080 pixels
    Display aspect ratio : 16:9
    Frame rate : 25.000 fps
    Color space : YUV
    Chroma subsampling : 4:2:0
    Bit depth : 8 bits
    Scan type : Interlaced
    Scan order : Top Field First
    Bits/(Pixel*Frame) : 0.229
    Stream size : 1.78 GiB (90%)
    Color primaries : BT.709
    Transfer characteristics : BT.709
    Matrix coefficients : BT.709
    
    Audio #1
    ID : 101 (0x65)
    Menu ID : 1 (0x1)
    Format : AAC
    Format/Info : Advanced Audio Codec
    Format version : Version 4
    Format profile : LC
    Muxing mode : ADTS
    Codec ID : 15
    Duration : 21mn 32s
    Bit rate mode : Variable
    Bit rate : 220 Kbps
    Channel(s) : 2 channels
    Channel positions : Front: L R
    Sampling rate : 48.0 KHz
    Compression mode : Lossy
    Stream size : 33.9 MiB (2%)
    
    Audio #2
    ID : 103 (0x67)
    Menu ID : 1 (0x1)
    Format : AAC
    Format/Info : Advanced Audio Codec
    Format version : Version 4
    Format profile : LC
    Muxing mode : ADTS
    Codec ID : 15
    Duration : 21mn 32s
    Bit rate mode : Variable
    Bit rate : 220 Kbps
    Channel(s) : 2 channels
    Channel positions : Front: L R
    Sampling rate : 48.0 KHz
    Compression mode : Lossy
    Stream size : 33.9 MiB (2%)
    
    Audio #3
    ID : 105 (0x69)
    Menu ID : 1 (0x1)
    Format : AAC
    Format/Info : Advanced Audio Codec
    Format version : Version 4
    Format profile : LC
    Muxing mode : ADTS
    Codec ID : 15
    Duration : 21mn 32s
    Bit rate mode : Variable
    Bit rate : 220 Kbps
    Channel(s) : 2 channels
    Channel positions : Front: L R
    Sampling rate : 48.0 KHz
    Compression mode : Lossy
    Stream size : 33.9 MiB (2%)
    
    Hidden Content:
    You must reply before you can see the hidden data contained here.
    Capped by me.
     
  2. Loading...


  3. alex

    alex Well-Known Member

    Joined:
    Nov 21, 2013
    Messages:
    4,573
    Likes Received:
    370
    Thank you so much for EI:D:love::love:
     
  4. ytyh

    ytyh Member

    Joined:
    Mar 30, 2014
    Messages:
    432
    Likes Received:
    4
    Thank you:)
     
  5. mvlmoraes

    mvlmoraes Well-Known Member Donor

    Joined:
    Nov 22, 2013
    Messages:
    1,865
    Likes Received:
    289
    thanks a lot
     
  6. Sajad

    Sajad Active Member

    Joined:
    Jan 31, 2015
    Messages:
    220
    Likes Received:
    100
    Tnx alot
     
  7. rasputin007

    rasputin007 Member

    Joined:
    Nov 12, 2015
    Messages:
    234
    Likes Received:
    18
    many thanx
     
  8. Hossein Enr7que

    Hossein Enr7que Enriquette . ZQUAD . XO V . I . P. Uploader

    Joined:
    May 13, 2016
    Messages:
    1,045
    Likes Received:
    1,657
    Thanks
     
  9. mert_tarioglu

    mert_tarioglu Member

    Joined:
    Apr 5, 2017
    Messages:
    42
    Likes Received:
    0
    thnxxxxxxxxx
     
  10. manos995

    manos995 New Member

    Joined:
    Nov 25, 2017
    Messages:
    21
    Likes Received:
    1
    thank you
     
  11. aghasammy

    aghasammy Striker

    Joined:
    Nov 15, 2017
    Messages:
    19
    Likes Received:
    2
    thank you
     
  12. manos995

    manos995 New Member

    Joined:
    Nov 25, 2017
    Messages:
    21
    Likes Received:
    1
    thank you
     
  13. KishanIglesias

    KishanIglesias Member

    Joined:
    Oct 30, 2017
    Messages:
    39
    Likes Received:
    0
    Thanks
     
  14. yr0

    yr0 New Member

    Joined:
    Nov 15, 2017
    Messages:
    18
    Likes Received:
    0
    thank you