BDRiP Madonna - Rebel Heart Tour (2016) BDRip 1080p

Discussion in 'BLU-RAY' started by hanshermann, Sep 25, 2017.

  1. hanshermann

    hanshermann Well-Known Member Uploader

    Joined:
    Aug 24, 2016
    Messages:
    5,222
    Likes Received:
    4,865
    [​IMG]

    Madonna - Rebel Heart Tour 2016 BDRip 1080p

    server : cloud.mail.ru

    Code:
    General
    Unique ID                   : 244403362435224596803086230639151834408 (0xB7DE601BACE4B73184A391272A926528)
    Complete name               : Madonna-Rebel Heart Tour.2016.BDRip1080p.mkv
    Format                      : Matroska
    Format version              : Version 2
    File size                   : 16.2 GiB
    Duration                    : 1 h 58 min
    Overall bit rate mode       : Variable
    Overall bit rate            : 19.5 Mb/s
    Movie name                  : Madonna-Rebel Heart Tour.2016.BDRip1080p 
    Encoded date                : UTC 2017-09-23 20:52:09
    Writing application         : mkvmerge v9.8.0 ('Kuglblids') 64bit
    Writing library             : libebml v1.3.4 + libmatroska v1.4.5
    
    Video
    ID                          : 1
    Format                      : AVC
    Format/Info                 : Advanced Video Codec
    Format profile              : [email protected]
    Format settings, CABAC      : Yes
    Format settings, ReFrames   : 4 frames
    Codec ID                    : V_MPEG4/ISO/AVC
    Duration                    : 1 h 58 min
    Bit rate                    : 17.0 Mb/s
    Width                       : 1 920 pixels
    Height                      : 1 080 pixels
    Display aspect ratio        : 16:9
    Frame rate mode             : Constant
    Frame rate                  : 29.970 (30000/1001) FPS
    Color space                 : YUV
    Chroma subsampling          : 4:2:0
    Bit depth                   : 8 bits
    Scan type                   : Progressive
    Bits/(Pixel*Frame)          : 0.274
    Stream size                 : 14.1 GiB (87%)
    Title                       : anbelk27 @ rutracker.org
    Writing library             : x264 core 148 r2744 b97ae06
    
    Default                     : Yes
    Forced                      : No
    
    Audio #1
    ID                          : 2
    Format                      : DTS
    Format/Info                 : Digital Theater Systems
    Mode                        : 16
    Format settings, Endianness : Big
    Codec ID                    : A_DTS
    Duration                    : 1 h 58 min
    Bit rate mode               : Constant
    Bit rate                    : 1 509 kb/s
    Channel(s)                  : 6 channels
    Channel positions           : Front: L C R, Side: L R, LFE
    Sampling rate               : 48.0 kHz
    Frame rate                  : 93.750 FPS (512 spf)
    Bit depth                   : 16 bits
    Compression mode            : Lossy
    Stream size                 : 1.25 GiB (8%)
    Title                       : DTS 5.1 @ 16 bit
    Default                     : Yes
    Forced                      : No
    
    Audio #2
    ID                          : 3
    Format                      : FLAC
    Format/Info                 : Free Lossless Audio Codec
    Codec ID                    : A_FLAC
    Duration                    : 1 h 58 min
    Bit rate mode               : Variable
    Bit rate                    : 959 kb/s
    Channel(s)                  : 2 channels
    Channel positions           : Front: L R
    Sampling rate               : 48.0 kHz
    Frame rate                  : 11.719 FPS (4096 spf)
    Bit depth                   : 16 bits
    Stream size                 : 815 MiB (5%)
    Title                       : FLAC 2.0 @ 16 bit
    Writing library             : libFLAC 1.2.1 (UTC 2007-09-17)
    Default                     : No
    Forced                      : No
    
    Menu
    00:00:00.000                : en:  Intro
    00:04:20.994                : en: 1. Iconic
    00:08:45.392                : en: 2. Bitch I’m Madonna
    00:12:21.007                : en: 3. Burning Up
    00:16:51.010                : en: 4. Holy Water
    00:22:57.142                : en: 5. Devil Pray
    00:27:13.966                : en: 6. Messiah
    00:30:39.738                : en: 7. Body Shop
    00:35:33.198                : en: 8. True Blue
    00:38:53.565                : en: 9. Deeper and Deeper
    00:43:49.794                : en: 10. HeartBreakCity
    00:48:24.735                : en: 11. Like a Virgin
    00:53:14.992                : en: 12. S.E.X.
    00:56:57.014                : en: 13. Living for Love (Remix)
    01:02:10.226                : en: 14. La Isla Bonita
    01:07:13.563                : en: 15. Dress You Up / Into The Groove / Lucky Star
    01:13:24.533                : en: 16. Who’s That Girl
    01:15:47.410                : en: 17. Rebel Heart
    01:19:38.974                : en: 18. Illuminati
    01:24:08.977                : en: 19. Music
    01:29:55.023                : en: 20. Candy Shop
    01:32:45.994                : en: 21. Material Girl
    01:38:58.166                : en: 22. La Vie En Rose
    01:43:19.994                : en: 23. Unapologetic Bitch
    01:50:33.026                : en: 24. Holiday
    01:56:22.976                : en:  Credits
    
    Hidden Content:
    You must either reply or click 'Like' to see the hidden information contained here.
     
    Last edited: Sep 25, 2017
  2. Loading...


  3. romaiin31

    romaiin31 Member

    Joined:
    Mar 31, 2014
    Messages:
    58
    Likes Received:
    0
    Thank you :)
     
  4. master468

    master468 Member

    Joined:
    Feb 1, 2017
    Messages:
    260
    Likes Received:
    19
  5. Diogof

    Diogof Active Member

    Joined:
    May 22, 2014
    Messages:
    313
    Likes Received:
    92
    thank you
     
  6. BNJFEV

    BNJFEV Member

    Joined:
    Dec 14, 2013
    Messages:
    311
    Likes Received:
    7
    thanks so much
     
  7. jerson9213

    jerson9213 Member

    Joined:
    Aug 30, 2016
    Messages:
    66
    Likes Received:
    6
    muchas gracias
     
  8. linden

    linden New Member

    Joined:
    Dec 18, 2015
    Messages:
    10
    Likes Received:
    0
    Thanks!!
     
  9. dangminh9999

    dangminh9999 Member

    Joined:
    Aug 19, 2014
    Messages:
    112
    Likes Received:
    3
  10. lim

    lim Well-Known Member

    Joined:
    Nov 8, 2013
    Messages:
    1,813
    Likes Received:
    36
    thank you
     
  11. vampy

    vampy Member

    Joined:
    Dec 21, 2015
    Messages:
    80
    Likes Received:
    5
    thanksssssss
     
  12. gaelloko

    gaelloko Active Member

    Joined:
    Sep 27, 2014
    Messages:
    186
    Likes Received:
    55
    thanks![​IMG]

    Madonna - Rebel Heart Tour 2016 BDRip 1080p

    server : cloud.mail.ru

    Code:
    General
    Unique ID                   : 244403362435224596803086230639151834408 (0xB7DE601BACE4B73184A391272A926528)
    Complete name               : Madonna-Rebel Heart Tour.2016.BDRip1080p.mkv
    Format                      : Matroska
    Format version              : Version 2
    File size                   : 16.2 GiB
    Duration                    : 1 h 58 min
    Overall bit rate mode       : Variable
    Overall bit rate            : 19.5 Mb/s
    Movie name                  : Madonna-Rebel Heart Tour.2016.BDRip1080p
    Encoded date                : UTC 2017-09-23 20:52:09
    Writing application         : mkvmerge v9.8.0 ('Kuglblids') 64bit
    Writing library             : libebml v1.3.4 + libmatroska v1.4.5
    
    Video
    ID                          : 1
    Format                      : AVC
    Format/Info                 : Advanced Video Codec
    Format profile              : [email protected]
    Format settings, CABAC      : Yes
    Format settings, ReFrames   : 4 frames
    Codec ID                    : V_MPEG4/ISO/AVC
    Duration                    : 1 h 58 min
    Bit rate                    : 17.0 Mb/s
    Width                       : 1 920 pixels
    Height                      : 1 080 pixels
    Display aspect ratio        : 16:9
    Frame rate mode             : Constant
    Frame rate                  : 29.970 (30000/1001) FPS
    Color space                 : YUV
    Chroma subsampling          : 4:2:0
    Bit depth                   : 8 bits
    Scan type                   : Progressive
    Bits/(Pixel*Frame)          : 0.274
    Stream size                 : 14.1 GiB (87%)
    Title                       : anbelk27 @ rutracker.org
    Writing library             : x264 core 148 r2744 b97ae06
    
    Default                     : Yes
    Forced                      : No
    
    Audio #1
    ID                          : 2
    Format                      : DTS
    Format/Info                 : Digital Theater Systems
    Mode                        : 16
    Format settings, Endianness : Big
    Codec ID                    : A_DTS
    Duration                    : 1 h 58 min
    Bit rate mode               : Constant
    Bit rate                    : 1 509 kb/s
    Channel(s)                  : 6 channels
    Channel positions           : Front: L C R, Side: L R, LFE
    Sampling rate               : 48.0 kHz
    Frame rate                  : 93.750 FPS (512 spf)
    Bit depth                   : 16 bits
    Compression mode            : Lossy
    Stream size                 : 1.25 GiB (8%)
    Title                       : DTS 5.1 @ 16 bit
    Default                     : Yes
    Forced                      : No
    
    Audio #2
    ID                          : 3
    Format                      : FLAC
    Format/Info                 : Free Lossless Audio Codec
    Codec ID                    : A_FLAC
    Duration                    : 1 h 58 min
    Bit rate mode               : Variable
    Bit rate                    : 959 kb/s
    Channel(s)                  : 2 channels
    Channel positions           : Front: L R
    Sampling rate               : 48.0 kHz
    Frame rate                  : 11.719 FPS (4096 spf)
    Bit depth                   : 16 bits
    Stream size                 : 815 MiB (5%)
    Title                       : FLAC 2.0 @ 16 bit
    Writing library             : libFLAC 1.2.1 (UTC 2007-09-17)
    Default                     : No
    Forced                      : No
    
    Menu
    00:00:00.000                : en:  Intro
    00:04:20.994                : en: 1. Iconic
    00:08:45.392                : en: 2. Bitch I’m Madonna
    00:12:21.007                : en: 3. Burning Up
    00:16:51.010                : en: 4. Holy Water
    00:22:57.142                : en: 5. Devil Pray
    00:27:13.966                : en: 6. Messiah
    00:30:39.738                : en: 7. Body Shop
    00:35:33.198                : en: 8. True Blue
    00:38:53.565                : en: 9. Deeper and Deeper
    00:43:49.794                : en: 10. HeartBreakCity
    00:48:24.735                : en: 11. Like a Virgin
    00:53:14.992                : en: 12. S.E.X.
    00:56:57.014                : en: 13. Living for Love (Remix)
    01:02:10.226                : en: 14. La Isla Bonita
    01:07:13.563                : en: 15. Dress You Up / Into The Groove / Lucky Star
    01:13:24.533                : en: 16. Who’s That Girl
    01:15:47.410                : en: 17. Rebel Heart
    01:19:38.974                : en: 18. Illuminati
    01:24:08.977                : en: 19. Music
    01:29:55.023                : en: 20. Candy Shop
    01:32:45.994                : en: 21. Material Girl
    01:38:58.166                : en: 22. La Vie En Rose
    01:43:19.994                : en: 23. Unapologetic Bitch
    01:50:33.026                : en: 24. Holiday
    01:56:22.976                : en:  Credits
    
    ***Hidden content cannot be quoted.***[/QUOTE]
     
  13. sebabea

    sebabea Member

    Joined:
    Dec 14, 2016
    Messages:
    156
    Likes Received:
    10
    good thanks
     
  14. Josh Chan

    Josh Chan Member

    Joined:
    Sep 28, 2014
    Messages:
    65
    Likes Received:
    8
  15. AlexQ

    AlexQ Well-Known Member Capper

    Joined:
    Sep 25, 2017
    Messages:
    92
    Likes Received:
    621
    thanks
     
  16. uomoss

    uomoss Member

    Joined:
    Nov 6, 2015
    Messages:
    63
    Likes Received:
    7
    graciasssssssssss
     
  17. Nicolas.rodriguezswift

    Nicolas.rodriguezswift Member

    Joined:
    Mar 24, 2017
    Messages:
    45
    Likes Received:
    0
  18. Alejo3110

    Alejo3110 Member

    Joined:
    Dec 11, 2016
    Messages:
    32
    Likes Received:
    2
    thankxxxxxxxxxxx
    [/QUOTE]
     
  19. chokko

    chokko Member

    Joined:
    Dec 10, 2016
    Messages:
    155
    Likes Received:
    4
    thanks
     
  20. chokko

    chokko Member

    Joined:
    Dec 10, 2016
    Messages:
    155
    Likes Received:
    4
    thanks
     
  21. Dyoggo

    Dyoggo Member

    Joined:
    May 14, 2014
    Messages:
    676
    Likes Received:
    10
    thanks