CC [L] Jennifer Lopez - Jennifer from the Block MTVHD 1080i HDTV DD2.0 H.264 CELOBRAZiL-HDMania [CC]

Discussion in 'MTV HD' started by CELOBRAZiL, Jun 26, 2017.

  1. CELOBRAZiL

    CELOBRAZiL Well-Known Member Capper V . I . P. Donor

    Joined:
    Oct 2, 2013
    Messages:
    4,256
    Likes Received:
    13,430
    [L] Jennifer Lopez - Jennifer from the Block MTVHD 1080i HDTV DD2.0 H.264 CELOBRAZiL-HDMania [CC]

    [​IMG]



    Format : MPEG-TS
    File size : 187 MiB
    Duration : 4mn 1s
    Overall bit rate mode : Variable
    Overall bit rate : 6 494 Kbps

    Video
    ID : 2760 (0xAC8)
    Menu ID : 5040 (0x13B0)
    Format : AVC
    Format/Info : Advanced Video Codec
    Format profile : [email protected]
    Format settings, CABAC : Yes
    Format settings, ReFrames : 3 frames
    Codec ID : 27
    Duration : 4mn 4s
    Bit rate : 5 979 Kbps
    Width : 1 920 pixels
    Height : 1 080 pixels
    Display aspect ratio : 16:9
    Frame rate : 29.970 fps
    Color space : YUV
    Chroma subsampling : 4:2:0
    Bit depth : 8 bits
    Scan type : MBAFF
    Scan order : Top Field First
    Bits/(Pixel*Frame) : 0.096
    Stream size : 174 MiB (93%)

    Audio
    ID : 2725 (0xAA5)
    Menu ID : 5040 (0x13B0)
    Format : AC-3
    Format/Info : Audio Coding 3
    Mode extension : CM (complete main)
    Format settings, Endianness : Big
    Codec ID : 129
    Duration : 4mn 4s
    Bit rate mode : Constant
    Bit rate : 192 Kbps
    Channel(s) : 2 channels
    Channel positions : Front: L R
    Sampling rate : 48.0 KHz
    Bit depth : 16 bits
    Compression mode : Lossy
    Stream size : 5.60 MiB (3%)
    Language : English

    Text #1
    ID : 2760 (0xAC8)-CC1
    Menu ID : 5040 (0x13B0)
    Format : EIA-608
    Muxing mode : SCTE 128 / DTVCC Transport
    Muxing mode, more info : Muxed in Video #1
    Duration : 4mn 4s
    Bit rate mode : Constant
    Stream size : 0.00 Byte (0%)

    Text #2
    ID : 2760 (0xAC8)-1
    Menu ID : 5040 (0x13B0)
    Format : EIA-708
    Muxing mode : SCTE 128 / DTVCC Transport
    Muxing mode, more info : Muxed in Video #1
    Duration : 4mn 4s
    Bit rate mode : Constant
    Stream size : 0.00 Byte (0%)

    Link(s):
    Hidden Content:
    You must either reply or click 'Like' to see the hidden information contained here.
     
  2. Loading...


  3. CELOBRAZiL

    CELOBRAZiL Well-Known Member Capper V . I . P. Donor

    Joined:
    Oct 2, 2013
    Messages:
    4,256
    Likes Received:
    13,430
  4. 777josem

    777josem ProRes 1080p LPCM V . I . P.

    Joined:
    Sep 1, 2014
    Messages:
    3,737
    Likes Received:
    3,045
    :happy:Thank you so much!
     
    CELOBRAZiL likes this.
  5. rhea

    rhea Well-Known Member

    Joined:
    Jan 6, 2014
    Messages:
    7,147
    Likes Received:
    798
    thanks :)
     
    CELOBRAZiL likes this.
  6. Dreamer

    Dreamer Lana Del Rey ♥ Halsey Capper V . I . P. Uploader

    Joined:
    Dec 4, 2014
    Messages:
    2,905
    Likes Received:
    4,598
    Thank you so much! Such a classic.
     
    CELOBRAZiL likes this.
  7. rvden

    rvden Well-Known Member

    Joined:
    Apr 9, 2017
    Messages:
    433
    Likes Received:
    284
    Thank you!
     
    CELOBRAZiL likes this.
  8. axel75

    axel75 New Member

    Joined:
    Jul 2, 2017
    Messages:
    24
    Likes Received:
    1
    thanks
     
    CELOBRAZiL likes this.
  9. DiVenturas

    DiVenturas Well-Known Member

    Joined:
    Oct 21, 2015
    Messages:
    2,737
    Likes Received:
    141
    Thanks
     
    CELOBRAZiL likes this.
  10. nachostripped

    nachostripped Active Member

    Joined:
    Feb 5, 2015
    Messages:
    439
    Likes Received:
    33
    thank you
     
    CELOBRAZiL likes this.
  11. barnabas11

    barnabas11 Member

    Joined:
    Jul 4, 2014
    Messages:
    246
    Likes Received:
    16
    Thanks for J.Lo.
     
    CELOBRAZiL likes this.
  12. dimas1606

    dimas1606 New Member

    Joined:
    Nov 18, 2016
    Messages:
    14
    Likes Received:
    4
    Thanks!
     
    CELOBRAZiL likes this.
  13. alterion

    alterion Member

    Joined:
    May 7, 2016
    Messages:
    525
    Likes Received:
    22
  14. teflabyte

    teflabyte Member

    Joined:
    Aug 5, 2017
    Messages:
    530
    Likes Received:
    19
  15. uomoss

    uomoss Member

    Joined:
    Nov 6, 2015
    Messages:
    63
    Likes Received:
    7
    graciassssssssssssssss
     
  16. allynat

    allynat Member

    Joined:
    Dec 25, 2017
    Messages:
    363
    Likes Received:
    6
    thank u