[L] Bruno Mars - Versace on the Floor MTVHD 1080i HDTV DD2.0 H.264 CELOBRAZiL-HDMania

Discussion in 'MTV HD' started by CELOBRAZiL, Sep 7, 2017.

  1. CELOBRAZiL

    CELOBRAZiL Well-Known Member Capper V . I . P. Donor

    Joined:
    Oct 2, 2013
    Messages:
    4,256
    Likes Received:
    13,420
    [L] Bruno Mars - Versace on the Floor MTVHD 1080i HDTV DD2.0 H.264 CELOBRAZiL-HDMania

    [​IMG]



    Format : MPEG-TS
    File size : 233 MiB
    Duration : 5mn 27s
    Overall bit rate mode : Variable
    Overall bit rate : 5 959 Kbps

    Video
    ID : 2760 (0xAC8)
    Menu ID : 5040 (0x13B0)
    Format : AVC
    Format/Info : Advanced Video Codec
    Format profile : [email protected]
    Format settings, CABAC : Yes
    Format settings, ReFrames : 3 frames
    Codec ID : 27
    Duration : 5mn 30s
    Bit rate : 5 471 Kbps
    Width : 1 920 pixels
    Height : 1 080 pixels
    Display aspect ratio : 16:9
    Frame rate : 29.970 fps
    Color space : YUV
    Chroma subsampling : 4:2:0
    Bit depth : 8 bits
    Scan type : MBAFF
    Scan order : Top Field First
    Bits/(Pixel*Frame) : 0.088
    Stream size : 216 MiB (93%)

    Audio
    ID : 2725 (0xAA5)
    Menu ID : 5040 (0x13B0)
    Format : AC-3
    Format/Info : Audio Coding 3
    Mode extension : CM (complete main)
    Format settings, Endianness : Big
    Codec ID : 129
    Duration : 5mn 30s
    Bit rate mode : Constant
    Bit rate : 192 Kbps
    Channel(s) : 2 channels
    Channel positions : Front: L R
    Sampling rate : 48.0 KHz
    Bit depth : 16 bits
    Compression mode : Lossy
    Stream size : 7.57 MiB (3%)
    Language : English

    Text
    ID : 2760 (0xAC8)-CC4
    Menu ID : 5040 (0x13B0)
    Format : EIA-608
    Muxing mode : SCTE 128 / DTVCC Transport
    Muxing mode, more info : Muxed in Video #1
    Duration : 5mn 30s
    Bit rate mode : Constant
    Stream size : 0.00 Byte (0%)

    Link(s):
    Hidden Content:
    You must either reply or click 'Like' to see the hidden information contained here.
     
    Austianto, DiVenturas, Zatimi and 3 others like this.
  2. Loading...


  3. CELOBRAZiL

    CELOBRAZiL Well-Known Member Capper V . I . P. Donor

    Joined:
    Oct 2, 2013
    Messages:
    4,256
    Likes Received:
    13,420
  4. rhea

    rhea Well-Known Member

    Joined:
    Jan 6, 2014
    Messages:
    7,146
    Likes Received:
    795
    thanks
     
    CELOBRAZiL likes this.
  5. rvden

    rvden Well-Known Member

    Joined:
    Apr 9, 2017
    Messages:
    432
    Likes Received:
    284
    Thank you!
     
    CELOBRAZiL likes this.
  6. Marcelo Garcia Junior

    Marcelo Garcia Junior Member

    Joined:
    Jun 3, 2015
    Messages:
    554
    Likes Received:
    13
    wowwwwwwwwwwwwwww
     
  7. DiVenturas

    DiVenturas Well-Known Member

    Joined:
    Oct 21, 2015
    Messages:
    2,737
    Likes Received:
    141
    thanks
     
    CELOBRAZiL likes this.
  8. rikylouis14

    rikylouis14 Well-Known Member

    Joined:
    Jun 27, 2016
    Messages:
    769
    Likes Received:
    470
    obrigado
     
  9. VIVAfan1991

    VIVAfan1991 Active Member

    Joined:
    Jan 11, 2018
    Messages:
    175
    Likes Received:
    28