Katy Perry - Katy Hudson Tour 2001 (Live + Interview) 720p

Discussion in 'SD Live Performances' started by danixat, Sep 2, 2014.

  1. danixat

    danixat Katycat ^-^ Capper V . I . P. Donor

    Joined:
    Feb 23, 2014
    Messages:
    1,198
    Likes Received:
    7,343
    [​IMG]
    Code:
    General
    Complete name                  : K:\Katy Perry - Katy Hudson Tour 2001.mp4
    Format                         : MPEG-4
    Format profile                 : Base Media / Version 2
    Codec ID                       : mp42
    File size                      : 242 MiB
    Duration                       : 12mn 49s
    Overall bit rate mode          : Variable
    Overall bit rate               : 2 641 Kbps
    
    Video
    ID                             : 1
    Format                         : AVC
    Format/Info                    : Advanced Video Codec
    Format profile                 : [email protected]3.1
    Format settings, CABAC         : Yes
    Format settings, ReFrames      : 4 frames
    Codec ID                       : avc1
    Codec ID/Info                  : Advanced Video Coding
    Duration                       : 12mn 49s
    Bit rate                       : 2 500 Kbps
    Width                          : 1 280 pixels
    Height                         : 720 pixels
    Display aspect ratio           : 16:9
    Frame rate mode                : Constant
    Frame rate                     : 29.970 fps
    Color space                    : YUV
    Chroma subsampling             : 4:2:0
    Bit depth                      : 8 bits
    Scan type                      : Progressive
    Bits/(Pixel*Frame)             : 0.091
    Stream size                    : 228 MiB (94%)
    
    Audio
    ID                             : 2
    Format                         : AAC
    Format/Info                    : Advanced Audio Codec
    Format profile                 : LC
    Codec ID                       : 40
    Duration                       : 12mn 49s
    Bit rate mode                  : Variable
    Bit rate                       : 147 Kbps
    Channel(s)                     : 2 channels
    Channel positions              : Front: L R
    Sampling rate                  : 48.0 KHz
    Compression mode               : Lossy
    Stream size                    : 13.5 MiB (6%)
    Download:
    Hidden Content:
    You must either reply or click 'Like' to see the hidden information contained here.
     
  2. Loading...


  3. alex

    alex Well-Known Member

    Joined:
    Nov 21, 2013
    Messages:
    4,573
    Likes Received:
    370
    thanks:victory:
     
  4. brianvip

    brianvip Active Member

    Joined:
    Oct 2, 2014
    Messages:
    775
    Likes Received:
    35
    thanks
     
  5. znake

    znake Active Member

    Joined:
    Oct 25, 2013
    Messages:
    502
    Likes Received:
    72
    hI,

    THanks cutie!!
     
  6. JoseK

    JoseK Member

    Joined:
    Aug 30, 2016
    Messages:
    72
    Likes Received:
    27
    thankkss