Katy Perry Feat. Skip Marley - Chained to the Rhythm MTVHD 1080i HDTV DD2.0 H.264 CELOBRAZiL-HDMania

Discussion in 'MTV HD' started by CELOBRAZiL, Jun 2, 2017.

  1. CELOBRAZiL

    CELOBRAZiL Well-Known Member Capper V . I . P. Donor

    Joined:
    Oct 2, 2013
    Messages:
    4,256
    Likes Received:
    13,430
    Katy Perry Feat. Skip Marley - Chained to the Rhythm MTVHD 1080i HDTV DD2.0 H.264 CELOBRAZiL-HDMania

    [​IMG]



    Format : MPEG-TS
    File size : 208 MiB
    Duration : 3mn 54s
    Overall bit rate mode : Variable
    Overall bit rate : 7 458 Kbps

    Video
    ID : 2760 (0xAC8)
    Menu ID : 5040 (0x13B0)
    Format : AVC
    Format/Info : Advanced Video Codec
    Format profile : [email protected]
    Format settings, CABAC : Yes
    Format settings, ReFrames : 3 frames
    Codec ID : 27
    Duration : 3mn 56s
    Bit rate : 6 896 Kbps
    Width : 1 920 pixels
    Height : 1 080 pixels
    Display aspect ratio : 16:9
    Frame rate : 29.970 fps
    Color space : YUV
    Chroma subsampling : 4:2:0
    Bit depth : 8 bits
    Scan type : MBAFF
    Scan order : Top Field First
    Bits/(Pixel*Frame) : 0.111
    Stream size : 195 MiB (93%)

    Audio
    ID : 2724 (0xAA4)
    Menu ID : 5040 (0x13B0)
    Format : AC-3
    Format/Info : Audio Coding 3
    Mode extension : CM (complete main)
    Format settings, Endianness : Big
    Codec ID : 129
    Duration : 3mn 56s
    Bit rate mode : Constant
    Bit rate : 192 Kbps
    Channel(s) : 2 channels
    Channel positions : Front: L R
    Sampling rate : 48.0 KHz
    Bit depth : 16 bits
    Compression mode : Lossy
    Stream size : 5.42 MiB (3%)
    Language : English

    Text #1
    ID : 2760 (0xAC8)-CC1
    Menu ID : 5040 (0x13B0)
    Format : EIA-608
    Muxing mode : SCTE 128 / DTVCC Transport
    Muxing mode, more info : Muxed in Video #1
    Duration : 3mn 56s
    Bit rate mode : Constant
    Stream size : 0.00 Byte (0%)

    Text #2
    ID : 2760 (0xAC8)-1
    Menu ID : 5040 (0x13B0)
    Format : EIA-708
    Muxing mode : SCTE 128 / DTVCC Transport
    Muxing mode, more info : Muxed in Video #1
    Duration : 3mn 56s
    Bit rate mode : Constant
    Stream size : 0.00 Byte (0%)

    Link(s):
    Hidden Content:
    You must either reply or click 'Like' to see the hidden information contained here.
     
  2. Loading...


  3. Dreamer

    Dreamer Lana Del Rey ♥ Halsey Capper V . I . P. Uploader

    Joined:
    Dec 4, 2014
    Messages:
    2,905
    Likes Received:
    4,598
    Thank you!
     
    CELOBRAZiL likes this.
  4. lastxdance

    lastxdance Member

    Joined:
    Dec 13, 2016
    Messages:
    419
    Likes Received:
    24
    Thanks!!
     
    CELOBRAZiL likes this.
  5. rhea

    rhea Well-Known Member

    Joined:
    Jan 6, 2014
    Messages:
    7,147
    Likes Received:
    798
    thanks :)
     
    CELOBRAZiL likes this.
  6. webstarbb

    webstarbb Member

    Joined:
    May 31, 2014
    Messages:
    75
    Likes Received:
    7
    thank you
     
    CELOBRAZiL likes this.
  7. xabieroyo

    xabieroyo Active Member

    Joined:
    May 30, 2017
    Messages:
    133
    Likes Received:
    82
    THANKS
     
    CELOBRAZiL likes this.
  8. rvden

    rvden Well-Known Member

    Joined:
    Apr 9, 2017
    Messages:
    433
    Likes Received:
    284
    Thank you!
     
    CELOBRAZiL likes this.
  9. hanshermann

    hanshermann Well-Known Member Uploader

    Joined:
    Aug 24, 2016
    Messages:
    5,240
    Likes Received:
    4,939
    wahts taht
     
  10. Pedro16

    Pedro16 Member

    Joined:
    Jan 16, 2017
    Messages:
    180
    Likes Received:
    7
    Thanks!!!
     
  11. DiVenturas

    DiVenturas Well-Known Member

    Joined:
    Oct 21, 2015
    Messages:
    2,737
    Likes Received:
    141
    thanks
     
    CELOBRAZiL likes this.
  12. trevorme

    trevorme Member

    Joined:
    Jan 12, 2017
    Messages:
    327
    Likes Received:
    10
    thanks
     
    CELOBRAZiL likes this.
  13. jayananda

    jayananda Active Member

    Joined:
    Jan 14, 2015
    Messages:
    602
    Likes Received:
    191
    Thank You
     
    CELOBRAZiL likes this.
  14. Pra

    Pra Member

    Joined:
    Jun 19, 2014
    Messages:
    77
    Likes Received:
    6
    thank you
     
    CELOBRAZiL likes this.
  15. rikylouis14

    rikylouis14 Well-Known Member

    Joined:
    Jun 27, 2016
    Messages:
    769
    Likes Received:
    471
    obrigado
     
  16. VIVAfan1991

    VIVAfan1991 Active Member

    Joined:
    Jan 11, 2018
    Messages:
    179
    Likes Received:
    28