Katy Perry Feat. Migos - Bon Appétit VH1HD 1080i HDTV DD2.0 H.264 CELOBRAZiL-HDMania

Discussion in 'VH1 HD' started by CELOBRAZiL, Jun 27, 2017.

  1. CELOBRAZiL

    CELOBRAZiL Well-Known Member Capper V . I . P. Donor

    Joined:
    Oct 2, 2013
    Messages:
    4,250
    Likes Received:
    13,398
    Katy Perry Feat. Migos - Bon Appétit VH1HD 1080i HDTV DD2.0 H.264 CELOBRAZiL-HDMania

    [​IMG]



    Format : MPEG-TS
    File size : 188 MiB
    Duration : 4mn 10s
    Overall bit rate mode : Variable
    Overall bit rate : 6 271 Kbps

    Video
    ID : 5408 (0x1520)
    Menu ID : 5416 (0x1528)
    Format : AVC
    Format/Info : Advanced Video Codec
    Format profile : [email protected]
    Format settings, CABAC : Yes
    Format settings, ReFrames : 3 frames
    Codec ID : 27
    Duration : 4mn 13s
    Bit rate : 5 573 Kbps
    Width : 1 920 pixels
    Height : 1 080 pixels
    Display aspect ratio : 16:9
    Frame rate : 29.970 fps
    Color space : YUV
    Chroma subsampling : 4:2:0
    Bit depth : 8 bits
    Scan type : MBAFF
    Scan order : Top Field First
    Bits/(Pixel*Frame) : 0.090
    Stream size : 168 MiB (90%)

    Audio
    ID : 5409 (0x1521)
    Menu ID : 5416 (0x1528)
    Format : AC-3
    Format/Info : Audio Coding 3
    Mode extension : CM (complete main)
    Format settings, Endianness : Big
    Codec ID : 129
    Duration : 4mn 13s
    Bit rate mode : Constant
    Bit rate : 384 Kbps
    Channel(s) : 2 channels
    Channel positions : Front: L R
    Sampling rate : 48.0 KHz
    Bit depth : 16 bits
    Compression mode : Lossy
    Stream size : 11.6 MiB (6%)
    Language : English

    Text
    ID : 5408 (0x1520)-CC1
    Menu ID : 5416 (0x1528)
    Format : EIA-608
    Muxing mode : SCTE 128 / DTVCC Transport
    Muxing mode, more info : Muxed in Video #1
    Duration : 4mn 13s
    Bit rate mode : Constant
    Stream size : 0.00 Byte (0%)

    Link(s):
    Hidden Content:
    You must either reply or click 'Like' to see the hidden information contained here.
     
  2. Loading...


  3. CELOBRAZiL

    CELOBRAZiL Well-Known Member Capper V . I . P. Donor

    Joined:
    Oct 2, 2013
    Messages:
    4,250
    Likes Received:
    13,398
  4. rvden

    rvden Well-Known Member

    Joined:
    Apr 9, 2017
    Messages:
    432
    Likes Received:
    284
    Thank you!
     
    CELOBRAZiL likes this.
  5. rhea

    rhea Well-Known Member

    Joined:
    Jan 6, 2014
    Messages:
    7,132
    Likes Received:
    795
    thanks :)
     
    CELOBRAZiL likes this.
  6. DiVenturas

    DiVenturas Well-Known Member

    Joined:
    Oct 21, 2015
    Messages:
    2,737
    Likes Received:
    141
    Thank you
     
    CELOBRAZiL likes this.
  7. jayananda

    jayananda Active Member

    Joined:
    Jan 14, 2015
    Messages:
    602
    Likes Received:
    185
    Thank You
     
    CELOBRAZiL likes this.
  8. beAst5

    beAst5 Active Member

    Joined:
    Mar 30, 2014
    Messages:
    250
    Likes Received:
    36
    thank you
     
    CELOBRAZiL likes this.
  9. maurohachen

    maurohachen Active Member

    Joined:
    Feb 24, 2015
    Messages:
    469
    Likes Received:
    25
    graciassss
     
  10. Volc Mi

    Volc Mi Member

    Joined:
    Jun 24, 2017
    Messages:
    120
    Likes Received:
    13
    thanks
     
    CELOBRAZiL likes this.
  11. Pedro16

    Pedro16 Member

    Joined:
    Jan 16, 2017
    Messages:
    180
    Likes Received:
    7
    Thanks!
     
  12. CristianMatias

    CristianMatias HIGH DEFINITION

    Joined:
    Sep 17, 2016
    Messages:
    883
    Likes Received:
    25
    Katy Perry Feat. Migos - Bon Appétit
     
  13. tetard

    tetard Well-Known Member V . I . P.

    Joined:
    Mar 29, 2014
    Messages:
    1,021
    Likes Received:
    1,850
    Thank you
     
    CELOBRAZiL likes this.
  14. hanshermann

    hanshermann Well-Known Member Uploader

    Joined:
    Aug 24, 2016
    Messages:
    5,240
    Likes Received:
    4,896
    wahts taht
     
  15. VIVAfan1991

    VIVAfan1991 Active Member

    Joined:
    Jan 11, 2018
    Messages:
    159
    Likes Received:
    28
    thanks
     
    CELOBRAZiL likes this.
  16. ruhull.fb

    ruhull.fb Member

    Joined:
    May 19, 2017
    Messages:
    146
    Likes Received:
    23
    thank you so much