JAY-Z - Family Feud (featuring Beyoncé) FULL VERSION

Discussion in 'Music Videos' started by Marcos Sannin, Jan 4, 2018.

  1. Marcos Sannin

    Marcos Sannin Well-Known Member

    Joined:
    Dec 11, 2014
    Messages:
    479
    Likes Received:
    578
    [​IMG]

    Media Info
    Complete name : JAY-Z - Family Feud (featuring Beyoncé).m2ts
    Format : BDAV
    Format/Info : Blu-ray Video
    File size : 171 MiB
    Duration : 4mn 11s
    Overall bit rate mode : Variable
    Overall bit rate : 5 688 Kbps
    Maximum Overall bit rate : 24.0 Mbps

    Video
    ID : 4113 (0x1011)
    Menu ID : 1 (0x1)
    Format : AVC
    Format/Info : Advanced Video Codec
    Format profile : [email protected]
    Format settings, CABAC : Yes
    Format settings, ReFrames : 2 frames
    Codec ID : 27
    Duration : 4mn 11s
    Bit rate mode : Constant
    Bit rate : 5 132 Kbps
    Width : 1 920 pixels
    Height : 1 080 pixels
    Display aspect ratio : 16:9
    Frame rate : 29.970 (30000/1001) fps
    Standard : NTSC
    Color space : YUV
    Chroma subsampling : 4:2:0
    Bit depth : 8 bits
    Scan type : MBAFF
    Scan type, store method : Interleaved fields
    Scan order : Top Field First
    Bits/(Pixel*Frame) : 0.083
    Stream size : 158 MiB (92%)
    Color range : Limited
    Color primaries : BT.709
    Transfer characteristics : BT.709
    Matrix coefficients : BT.709

    Audio
    ID : 4352 (0x1100)
    Menu ID : 1 (0x1)
    Format : AC-3
    Format/Info : Audio Coding 3
    Mode extension : CM (complete main)
    Format settings, Endianness : Big
    Codec ID : 129
    Duration : 4mn 11s
    Bit rate mode : Constant
    Bit rate : 192 Kbps
    Channel(s) : 2 channels
    Channel positions : Front: L R
    Sampling rate : 48.0 KHz
    Frame rate : 31.250 fps (1536 spf)
    Compression mode : Lossy
    Stream size : 5.75 MiB (3%)

    Hidden Content:
    You must either reply or click 'Like' to see the hidden information contained here.
     
  2. Loading...


  3. 010juninho

    010juninho Active Member

    Joined:
    Jan 16, 2016
    Messages:
    771
    Likes Received:
    26
    Thank You
     
  4. biancacm

    biancacm New Member

    Joined:
    Jan 2, 2018
    Messages:
    13
    Likes Received:
    0
    ouuuuuuuuuuuuuuuuuu valeuuu
     
  5. melina43

    melina43 Member

    Joined:
    Jul 17, 2016
    Messages:
    174
    Likes Received:
    11
    11111
     
  6. BetaKsi

    BetaKsi Well-Known Member

    Joined:
    Oct 18, 2015
    Messages:
    1,381
    Likes Received:
    444
    Thank you))
     
  7. Henriique

    Henriique Member

    Joined:
    Sep 25, 2016
    Messages:
    74
    Likes Received:
    8
    obrigado!
     
  8. hzh

    hzh Member

    Joined:
    Dec 26, 2017
    Messages:
    119
    Likes Received:
    1
    thank you
     
  9. Eslam Abosaed

    Eslam Abosaed Member

    Joined:
    Jan 27, 2015
    Messages:
    263
    Likes Received:
    5
    thank you
     
  10. perfectlyIMPERFECT

    perfectlyIMPERFECT New Member

    Joined:
    Oct 21, 2016
    Messages:
    10
    Likes Received:
    0
  11. luismolinanyc

    luismolinanyc Member

    Joined:
    May 17, 2016
    Messages:
    635
    Likes Received:
    24
  12. toonbbv

    toonbbv Well-Known Member

    Joined:
    Dec 11, 2013
    Messages:
    1,691
    Likes Received:
    81
    thank you
     
  13. mcslimshady

    mcslimshady Well-Known Member

    Joined:
    Jun 20, 2016
    Messages:
    1,479
    Likes Received:
    36
    thnaks man
     
  14. mysteryman55

    mysteryman55 New Member

    Joined:
    Oct 30, 2016
    Messages:
    7
    Likes Received:
    1
  15. Fernando_rlee

    Fernando_rlee New Member

    Joined:
    Feb 8, 2016
    Messages:
    14
    Likes Received:
    0
  16. JPGAmbrosino

    JPGAmbrosino Member

    Joined:
    Jul 30, 2016
    Messages:
    283
    Likes Received:
    10
    txs a lottt
     
  17. FlacoChileno

    FlacoChileno Member

    Joined:
    Jan 26, 2015
    Messages:
    479
    Likes Received:
    18
    This is great, thank you! :)
     
  18. lugurod

    lugurod Member

    Joined:
    Oct 4, 2014
    Messages:
    136
    Likes Received:
    8