Jason Derulo Feat. French Montana - Tip Toe VH1HD 1080i HDTV DD2.0 H.264 CELOBRAZiL-HDMania

Discussion in 'VH1 HD' started by CELOBRAZiL, Jan 12, 2018.

  1. CELOBRAZiL

    CELOBRAZiL Well-Known Member Capper V . I . P. Donor

    Joined:
    Oct 2, 2013
    Messages:
    4,256
    Likes Received:
    13,432
    Jason Derulo Feat. French Montana - Tip Toe VH1HD 1080i HDTV DD2.0 H.264 CELOBRAZiL-HDMania

    [​IMG]



    Format : MPEG-TS
    File size : 182 MiB
    Duration : 3mn 26s
    Overall bit rate mode : Variable
    Overall bit rate : 7 408 Kbps

    Video
    ID : 5408 (0x1520)
    Menu ID : 5416 (0x1528)
    Format : AVC
    Format/Info : Advanced Video Codec
    Format profile : [email protected]
    Format settings, CABAC : Yes
    Format settings, ReFrames : 3 frames
    Codec ID : 27
    Duration : 3mn 28s
    Bit rate : 6 654 Kbps
    Width : 1 920 pixels
    Height : 1 080 pixels
    Display aspect ratio : 16:9
    Frame rate : 29.970 fps
    Color space : YUV
    Chroma subsampling : 4:2:0
    Bit depth : 8 bits
    Scan type : MBAFF
    Scan order : Top Field First
    Bits/(Pixel*Frame) : 0.107
    Stream size : 166 MiB (91%)

    Audio
    ID : 5409 (0x1521)
    Menu ID : 5416 (0x1528)
    Format : AC-3
    Format/Info : Audio Coding 3
    Mode extension : CM (complete main)
    Format settings, Endianness : Big
    Codec ID : 129
    Duration : 3mn 28s
    Bit rate mode : Constant
    Bit rate : 384 Kbps
    Channel(s) : 2 channels
    Channel positions : Front: L R
    Sampling rate : 48.0 KHz
    Bit depth : 16 bits
    Compression mode : Lossy
    Stream size : 9.56 MiB (5%)
    Language : English

    Link(s):
    Hidden Content:
    You must either reply or click 'Like' to see the hidden information contained here.
     
  2. Loading...


  3. CELOBRAZiL

    CELOBRAZiL Well-Known Member Capper V . I . P. Donor

    Joined:
    Oct 2, 2013
    Messages:
    4,256
    Likes Received:
    13,432
  4. Dreamer

    Dreamer Lana Del Rey ♥ Halsey Capper V . I . P. Uploader

    Joined:
    Dec 4, 2014
    Messages:
    2,905
    Likes Received:
    4,599
    Thank you!
     
    CELOBRAZiL likes this.
  5. rhea

    rhea Well-Known Member

    Joined:
    Jan 6, 2014
    Messages:
    7,147
    Likes Received:
    798
    thank you
     
    CELOBRAZiL likes this.
  6. jonathan joel 97

    jonathan joel 97 Justin bieber

    Joined:
    Oct 1, 2015
    Messages:
    278
    Likes Received:
    201
    Thanks :love:
     
    CELOBRAZiL likes this.
  7. rvden

    rvden Well-Known Member

    Joined:
    Apr 9, 2017
    Messages:
    433
    Likes Received:
    284
    Thank you!
     
    CELOBRAZiL likes this.
  8. jayananda

    jayananda Active Member

    Joined:
    Jan 14, 2015
    Messages:
    602
    Likes Received:
    191
    Thank You
     
    CELOBRAZiL likes this.