FEED Harry Styles [#HarryStylesLiveInManchester-CTV] 12-12-2017 1080i-AVC-AC3- NET-FEED-ALEX

Discussion in 'HD Live Performances' started by AlexQ, Dec 18, 2017.

  1. AlexQ

    AlexQ Well-Known Member Capper

    Joined:
    Sep 25, 2017
    Messages:
    92
    Likes Received:
    617
    Harry Styles [#HarryStylesLiveInManchester-CTV] 12-12-2017 1080i-AVC-AC3- NET-FEED-ALEX

    [​IMG]

    [​IMG]

    Requested by:
    [​IMG]
    stylesy

    Video: MPEG4 Video (H264) 1920x1080 29.97fps [V: h264 high L4.0, yuv420p, 1920x1080]
    Audio: Dolby AC3 48000Hz 6ch 384kbps [A: English [eng] (ac3, 48000 Hz, 5.1, 384 kb/s)]
    Audio: Dolby AC3 48000Hz stereo 192kbps [A: English [eng] (ac3, 48000 Hz, stereo, 192 kb/s)]
    Audio: Dolby AC3 48000Hz stereo 192kbps [A: English [eng] (ac3, 48000 Hz, stereo, 192 kb/s)]

    General
    ID : 1 (0x1)
    Complete name :Harry Styles [#HarryStylesLiveInManchester-CTV] 12-12-2017 1080i-AVC-AC3- NET-FEED-ALEX.ts
    Format : MPEG-TS
    File size : 2.89 GiB
    Duration : 42mn 16s
    Overall bit rate mode : Variable
    Overall bit rate : 9 769 Kbps
    Law rating : PG
    Video
    ID : 2305 (0x901)
    Menu ID : 9 (0x9)
    Format : AVC
    Format/Info : Advanced Video Codec
    Format profile : [email protected]
    Format settings, CABAC : Yes
    Format settings, ReFrames : 4 frames
    Codec ID : 27
    Duration : 42mn 19s
    Bit rate : 8 511 Kbps
    Width : 1 920 pixels
    Height : 1 080 pixels
    Display aspect ratio : 16:9
    Frame rate : 29.970 fps
    Standard : Component
    Color space : YUV
    Chroma subsampling : 4:2:0
    Bit depth : 8 bits
    Scan type : Interlaced
    Scan order : Top Field First
    Bits/(Pixel*Frame) : 0.137
    Stream size : 2.52 GiB (87%)
    Color range : Limited
    Color primaries : BT.709
    Transfer characteristics : BT.709
    Matrix coefficients : BT.709
    Audio #1
    ID : 2306 (0x902)
    Menu ID : 9 (0x9)
    Format : AC-3
    Format/Info : Audio Coding 3
    Mode extension : CM (complete main)
    Format settings, Endianness : Big
    Codec ID : 129
    Duration : 42mn 19s
    Bit rate mode : Constant
    Bit rate : 384 Kbps
    Channel(s) : 6 channels
    Channel positions : Front: L C R, Side: L R, LFE
    Sampling rate : 48.0 KHz
    Bit depth : 16 bits
    Compression mode : Lossy
    Delay relative to video : -33ms
    Stream size : 116 MiB (4%)
    Language : English
    Audio #2
    ID : 2307 (0x903)
    Menu ID : 9 (0x9)
    Format : AC-3
    Format/Info : Audio Coding 3
    Mode extension : CM (complete main)
    Format settings, Endianness : Big
    Codec ID : 129
    Duration : 42mn 19s
    Bit rate mode : Constant
    Bit rate : 192 Kbps
    Channel(s) : 2 channels
    Channel positions : Front: L R
    Sampling rate : 48.0 KHz
    Bit depth : 16 bits
    Compression mode : Lossy
    Delay relative to video : -33ms
    Stream size : 58.1 MiB (2%)
    Language : English
    Audio #3
    ID : 2308 (0x904)
    Menu ID : 9 (0x9)
    Format : AC-3
    Format/Info : Audio Coding 3
    Mode extension : CM (complete main)
    Format settings, Endianness : Big
    Codec ID : 129
    Duration : 42mn 19s
    Bit rate mode : Constant
    Bit rate : 192 Kbps
    Channel(s) : 2 channels
    Channel positions : Front: L R
    Sampling rate : 48.0 KHz
    Bit depth : 16 bits
    Compression mode : Lossy
    Delay relative to video : -33ms
    Stream size : 58.1 MiB (2%)
    Language : English
    Text #1
    ID : 2305 (0x901)-CC1
    Menu ID : 9 (0x9)
    Format : EIA-608
    Muxing mode : SCTE 128 / DTVCC Transport
    Muxing mode, more info : Muxed in Video #1
    Duration : 42mn 19s
    Bit rate mode : Constant
    Stream size : 0.00 Byte (0%)
    Text #2
    ID : 2305 (0x901)-1
    Menu ID : 9 (0x9)
    Format : EIA-708
    Muxing mode : SCTE 128 / DTVCC Transport
    Muxing mode, more info : Muxed in Video #1
    Duration : 42mn 19s
    Bit rate mode : Constant
    Stream size : 0.00 Byte (0%)


    MEGA
    Hidden Content:
    You must either reply or click 'Like' to see the hidden information contained here.

    Thread link to "Harry Styles interview on etalk"

     
    danup_, iDejv, YDG and 9 others like this.
  2. Loading...


  3. AlexQ

    AlexQ Well-Known Member Capper

    Joined:
    Sep 25, 2017
    Messages:
    92
    Likes Received:
    617
    #HarryStylesLiveInManchester
     
    Last edited: Dec 18, 2017
  4. Steliana

    Steliana Member

    Joined:
    Jul 12, 2016
    Messages:
    79
    Likes Received:
    5
    Thank you!
     
  5. flickervinyl

    flickervinyl Active Member

    Joined:
    Nov 28, 2017
    Messages:
    107
    Likes Received:
    27
    YOURE THE BEST
     
  6. SmartBeens

    SmartBeens Active Member

    Joined:
    Oct 5, 2014
    Messages:
    735
    Likes Received:
    52
    Very nice Thanks
     
  7. usefuldo

    usefuldo Active Member

    Joined:
    Dec 19, 2013
    Messages:
    433
    Likes Received:
    30
    thanks!
     
  8. usefuldo

    usefuldo Active Member

    Joined:
    Dec 19, 2013
    Messages:
    433
    Likes Received:
    30
    thanks!
     
  9. xingshouyi

    xingshouyi Well-Known Member

    Joined:
    Jun 27, 2016
    Messages:
    850
    Likes Received:
    1,024
  10. stylesy

    stylesy Member

    Joined:
    May 5, 2016
    Messages:
    49
    Likes Received:
    2
    Thank you!!
     
  11. woman!

    woman! Member

    Joined:
    Apr 18, 2017
    Messages:
    45
    Likes Received:
    2
    grazie mille!
     
  12. spicyem

    spicyem Member

    Joined:
    Dec 17, 2015
    Messages:
    139
    Likes Received:
    5
    thanks
     
  13. Maura

    Maura Well-Known Member

    Joined:
    Apr 7, 2014
    Messages:
    2,660
    Likes Received:
    83
    thanks
     
  14. malonmalon

    malonmalon Member

    Joined:
    Dec 30, 2014
    Messages:
    125
    Likes Received:
    10
    thank you
     
  15. cinimodyeslah123

    cinimodyeslah123 Member

    Joined:
    Apr 17, 2017
    Messages:
    36
    Likes Received:
    4
    yays thank you:)
     
  16. Kiwi Man

    Kiwi Man Active Member

    Joined:
    Feb 15, 2017
    Messages:
    187
    Likes Received:
    33
    This looks interesting. He definitely can sing..... Thanks!
     
  17. eduardosantos

    eduardosantos Member

    Joined:
    Apr 18, 2017
    Messages:
    169
    Likes Received:
    9
  18. c_gbv

    c_gbv Member

    Joined:
    Mar 19, 2017
    Messages:
    63
    Likes Received:
    2
  19. multimediafm

    multimediafm Well-Known Member Donor

    Joined:
    Mar 27, 2014
    Messages:
    11,057
    Likes Received:
    659
  20. Extazy4u2

    Extazy4u2 Well-Known Member

    Joined:
    Jan 26, 2017
    Messages:
    2,066
    Likes Received:
    207