HDTV Halsey - X2 Performances (Saturday Night Live 01-13-2018) 1080i HDTV DD2.0 H.264-HDMania

Discussion in 'HD Live Performances' started by rgf72k, Jan 14, 2018 at 1:37 AM.

  1. rgf72k

    rgf72k Founder Staff Member AdMiN Capper Uploader

    Joined:
    Oct 1, 2013
    Messages:
    1,146
    Likes Received:
    16,851
    Halsey - Bad At Love (Saturday Night Live 01-13-2018)
    1080i HDTV DD2.0 H.264-HDMania

    [​IMG]
    [​IMG]
    [​IMG] [​IMG]

    General
    ID : 1 (0x1)
    Complete name : Halsey - Bad At Love (Saturday Night Live 01-13-2018) 1080i HDTV DD2.0 H.264-HDMania.ts
    Format : MPEG-TS
    File size : 345 MiB
    Duration : 3 min 22 s
    Overall bit rate mode : Variable
    Overall bit rate : 14.3 Mb/s

    Video
    ID : 4113 (0x1011)
    Menu ID : 1 (0x1)
    Format : AVC
    Format/Info : Advanced Video Codec
    Format profile : [email protected]
    Format settings : CABAC / 4 Ref Frames
    Format settings, CABAC : Yes
    Format settings, RefFrames : 4 frames
    Codec ID : 27
    Duration : 3 min 22 s
    Bit rate mode : Variable
    Bit rate : 13.2 Mb/s
    Maximum bit rate : 20.0 Mb/s
    Width : 1 920 pixels
    Height : 1 080 pixels
    Display aspect ratio : 16:9
    Frame rate : 29.970 (30000/1001) FPS
    Color space : YUV
    Chroma subsampling : 4:2:0
    Bit depth : 8 bits
    Scan type : Interlaced
    Scan type, store method : Separated fields
    Scan order : Top Field First
    Bits/(Pixel*Frame) : 0.212
    Stream size : 318 MiB (92%)
    Color range : Limited
    Color primaries : BT.709
    Transfer characteristics : BT.709
    Matrix coefficients : BT.709

    Audio
    ID : 4352 (0x1100)
    Menu ID : 1 (0x1)
    Format : AC-3
    Format/Info : Audio Coding 3
    Codec ID : 129
    Duration : 3 min 22 s
    Bit rate mode : Constant
    Bit rate : 384 kb/s
    Channel(s) : 2 channels
    Channel positions : Front: L R
    Sampling rate : 48.0 kHz
    Frame rate : 31.250 FPS (1536 SPF)
    Bit depth : 16 bits
    Compression mode : Lossy
    Stream size : 9.26 MiB (3%)
    Language : English
    Service kind : Complete Main

    Download:
    Hidden Content:
    You must either reply or click 'Like' to see the hidden information contained here.

    G-Eazy & Halsey - Him & I (Saturday Night Live 01-13-2018)
    1080i HDTV DD2.0 H.264-HDMania

    [​IMG]
    [​IMG]
    [​IMG] [​IMG]

    General
    ID : 1 (0x1)
    Complete name : G-Eazy & Halsey - Him & I (Saturday Night Live 01-13-2018) 1080i HDTV DD2.0 H.264-HDMania.ts
    Format : MPEG-TS
    File size : 473 MiB
    Duration : 4 min 37 s
    Overall bit rate mode : Variable
    Overall bit rate : 14.3 Mb/s

    Video
    ID : 4113 (0x1011)
    Menu ID : 1 (0x1)
    Format : AVC
    Format/Info : Advanced Video Codec
    Format profile : [email protected]
    Format settings : CABAC / 4 Ref Frames
    Format settings, CABAC : Yes
    Format settings, RefFrames : 4 frames
    Format settings, GOP : M=3, N=24
    Codec ID : 27
    Duration : 4 min 37 s
    Bit rate mode : Variable
    Bit rate : 13.2 Mb/s
    Maximum bit rate : 20.0 Mb/s
    Width : 1 920 pixels
    Height : 1 080 pixels
    Display aspect ratio : 16:9
    Frame rate : 29.970 (30000/1001) FPS
    Color space : YUV
    Chroma subsampling : 4:2:0
    Bit depth : 8 bits
    Scan type : Interlaced
    Scan type, store method : Separated fields
    Scan order : Top Field First
    Bits/(Pixel*Frame) : 0.212
    Stream size : 436 MiB (92%)
    Color range : Limited
    Color primaries : BT.709
    Transfer characteristics : BT.709
    Matrix coefficients : BT.709

    Audio
    ID : 4352 (0x1100)
    Menu ID : 1 (0x1)
    Format : AC-3
    Format/Info : Audio Coding 3
    Codec ID : 129
    Duration : 4 min 37 s
    Bit rate mode : Constant
    Bit rate : 384 kb/s
    Channel(s) : 2 channels
    Channel positions : Front: L R
    Sampling rate : 48.0 kHz
    Frame rate : 31.250 FPS (1536 SPF)
    Bit depth : 16 bits
    Compression mode : Lossy
    Stream size : 12.7 MiB (3%)
    Language : English
    Service kind : Complete Main

    Download:
    Hidden Content:
    You must either reply or click 'Like' to see the hidden information contained here.
    Capped By Me :victory:
     
  2. Loading...


  3. Thassyo

    Thassyo Well-Known Member

    Joined:
    Oct 9, 2013
    Messages:
    2,535
    Likes Received:
    1,048
    Thanks so much for Halsey <3
     
  4. jeaneyne

    jeaneyne Well-Known Member

    Joined:
    Oct 21, 2013
    Messages:
    873
    Likes Received:
    516
  5. rollergirl1621

    rollergirl1621 Member

    Joined:
    Aug 24, 2017
    Messages:
    88
    Likes Received:
    11
  6. xixi6969

    xixi6969 Well-Known Member

    Joined:
    Nov 23, 2015
    Messages:
    206
    Likes Received:
    1,246
    thx for sharing Halsey
     
  7. jack_black

    jack_black Well-Known Member

    Joined:
    Feb 16, 2014
    Messages:
    886
    Likes Received:
    738
  8. killers23

    killers23 Active Member

    Joined:
    Feb 27, 2015
    Messages:
    728
    Likes Received:
    93
  9. uminomiyako

    uminomiyako Well-Known Member

    Joined:
    May 28, 2016
    Messages:
    1,803
    Likes Received:
    69
  10. Maura

    Maura Well-Known Member

    Joined:
    Apr 7, 2014
    Messages:
    2,660
    Likes Received:
    83
  11. fisherTW

    fisherTW Well-Known Member

    Joined:
    Dec 3, 2014
    Messages:
    1,709
    Likes Received:
    184
  12. martin98

    martin98 Member

    Joined:
    Nov 11, 2016
    Messages:
    292
    Likes Received:
    12
  13. Grailen

    Grailen Well-Known Member

    Joined:
    Oct 8, 2013
    Messages:
    613
    Likes Received:
    796
  14. tf135

    tf135 Well-Known Member

    Joined:
    Nov 14, 2014
    Messages:
    2,566
    Likes Received:
    166
  15. maz

    maz New Member

    Joined:
    Feb 16, 2015
    Messages:
    9
    Likes Received:
    0
  16. Parrot6

    Parrot6 Member

    Joined:
    May 13, 2016
    Messages:
    96
    Likes Received:
    4
  17. withcap

    withcap Well-Known Member

    Joined:
    Oct 29, 2013
    Messages:
    1,872
    Likes Received:
    115
  18. meloman67

    meloman67 Active Member

    Joined:
    Jun 8, 2014
    Messages:
    882
    Likes Received:
    130
  19. alexbl182

    alexbl182 Member

    Joined:
    May 26, 2015
    Messages:
    178
    Likes Received:
    10
  20. harmonizer54

    harmonizer54 Well-Known Member

    Joined:
    Jul 21, 2016
    Messages:
    348
    Likes Received:
    260
  21. Pavulon

    Pavulon Well-Known Member

    Joined:
    Mar 22, 2016
    Messages:
    3,808
    Likes Received:
    490