WEB-RiP G Girls - Call The Police - Music Video [1440p + 4K Versions] (Hyrus) [Inna, Alexandra Stan & Others

Discussion in 'YOUTUBE' started by Hyrus, Mar 8, 2017.

  1. Hyrus

    Hyrus Arianator / Selenator / Victorian / Saxobeat / LBS Donor

    Joined:
    Feb 9, 2015
    Messages:
    1,366
    Likes Received:
    1,117
    The Girls in this video are: Inna, Alexandra Stan, Lori & Antonia.

    [​IMG]
    [​IMG]
    [​IMG]
    [​IMG]
    [​IMG]

    Thumbnails:
    [​IMG]
    Video
    ID : 1
    Format : AVC
    Format/Info : Advanced Video Codec
    Format profile : [email protected]
    Format settings, CABAC : No
    Format settings, ReFrames : 2 frames
    Codec ID : avc1
    Codec ID/Info : Advanced Video Coding
    Duration : 3 min 4 s
    Duration_FirstFrame : -40 ms
    Bit rate : 15.5 Mb/s
    Width : 3 840 pixels
    Height : 2 160 pixels
    Display aspect ratio : 16:9
    Frame rate mode : Variable
    Frame rate : 25.000 FPS
    Minimum frame rate : 25.000 FPS
    Maximum frame rate : 25.014 FPS
    Color space : YUV
    Chroma subsampling : 4:2:0
    Bit depth : 8 bits
    Scan type : Progressive
    Bits/(Pixel*Frame) : 0.075
    Stream size : 340 MiB (99%)

    Audio
    ID : 2
    Format : AAC
    Format/Info : Advanced Audio Codec
    Format profile : LC
    Codec ID : 40
    Duration : 3 min 4 s
    Bit rate mode : Constant
    Bit rate : 126 kb/s
    Channel(s) : 2 channels
    Channel positions : Front: L R
    Sampling rate : 44.1 kHz
    Frame rate : 43.066 FPS (1024 spf)
    Compression mode : Lossy
    Stream size : 2.76 MiB (1%)

    [​IMG]
    Video
    ID : 1
    Format : AVC
    Format/Info : Advanced Video Codec
    Format profile : [email protected]
    Format settings, CABAC : Yes
    Format settings, ReFrames : 2 frames
    Codec ID : avc1
    Codec ID/Info : Advanced Video Coding
    Duration : 3 min 4 s
    Duration_FirstFrame : -40 ms
    Bit rate : 6 610 kb/s
    Width : 2 560 pixels
    Height : 1 440 pixels
    Display aspect ratio : 16:9
    Frame rate mode : Variable
    Frame rate : 25.000 FPS
    Minimum frame rate : 25.000 FPS
    Maximum frame rate : 25.014 FPS
    Color space : YUV
    Chroma subsampling : 4:2:0
    Bit depth : 8 bits
    Scan type : Progressive
    Bits/(Pixel*Frame) : 0.072
    Stream size : 145 MiB (98%)

    Audio
    ID : 2
    Format : AAC
    Format/Info : Advanced Audio Codec
    Format profile : LC
    Codec ID : 40
    Duration : 3 min 4 s
    Bit rate mode : Constant
    Bit rate : 126 kb/s
    Channel(s) : 2 channels
    Channel positions : Front: L R
    Sampling rate : 44.1 kHz
    Frame rate : 43.066 FPS (1024 spf)
    Compression mode : Lossy
    Stream size : 2.76 MiB (2%)

    Download Links:
    Hidden Content:
    You must reply before you can see the hidden data contained here.
    Ripped by me.
     
    Last edited: Mar 8, 2017
  2. Loading...


  3. fisherTW

    fisherTW Well-Known Member

    Joined:
    Dec 3, 2014
    Messages:
    1,709
    Likes Received:
    184
    Thank you.:)
     
  4. FanofTheStars

    FanofTheStars Well-Known Member

    Joined:
    Feb 11, 2017
    Messages:
    1,428
    Likes Received:
    125
    to be honest I have never heard of the G Girls. But I will give them a try. Thank you.
     
  5. rhea

    rhea Well-Known Member

    Joined:
    Jan 6, 2014
    Messages:
    7,147
    Likes Received:
    798
    thanks
     
  6. Hyrus

    Hyrus Arianator / Selenator / Victorian / Saxobeat / LBS Donor

    Joined:
    Feb 9, 2015
    Messages:
    1,366
    Likes Received:
    1,117
    The G Girls is a special unit formed by female singers that are signed to Global Records. This is their first single and was released on june 2016. However, the persons behind this project decided it would be "cool" to rotate the girls. So on their 2nd single (released last week) they unfortunately replaced Alexandra with singer Lariss. :(
     
    FanofTheStars likes this.
  7. FanofTheStars

    FanofTheStars Well-Known Member

    Joined:
    Feb 11, 2017
    Messages:
    1,428
    Likes Received:
    125
    Thank you for the info. Much appreciated.
     
  8. kk20001996

    kk20001996 Well-Known Member

    Joined:
    Jun 9, 2016
    Messages:
    192
    Likes Received:
    474
    Actually song is great i listened to it so many times since I'm in partnership Global Records and Roton, they sent it to me
     
  9. funhawg

    funhawg Member

    Joined:
    Jan 4, 2014
    Messages:
    209
    Likes Received:
    4
    Thank you
     
  10. master444

    master444 Member

    Joined:
    Feb 27, 2017
    Messages:
    430
    Likes Received:
    6
    GOOOOOOOOOOOOOOOOOOOOOOOOOOOOOOOOOOOOOOODDDDDDDDDDDDDDDDDDDYYYYYYYYYYYYYYYYYYYYYYYYYYYYYYYY
     
  11. tf135

    tf135 Well-Known Member

    Joined:
    Nov 14, 2014
    Messages:
    2,583
    Likes Received:
    166
    thank you
     
  12. payam95

    payam95 New Member

    Joined:
    Jul 17, 2015
    Messages:
    15
    Likes Received:
    0
    thankssss
     
  13. sinshin

    sinshin Active Member

    Joined:
    Jan 27, 2015
    Messages:
    106
    Likes Received:
    62
    thank you
     
  14. alifaxa

    alifaxa Member

    Joined:
    Oct 21, 2015
    Messages:
    543
    Likes Received:
    11
    tanks
     
  15. klaus

    klaus Active Member

    Joined:
    Sep 11, 2014
    Messages:
    1,078
    Likes Received:
    20
    thanks
     
  16. letmein4321

    letmein4321 Member

    Joined:
    Feb 29, 2016
    Messages:
    66
    Likes Received:
    1
  17. Daze

    Daze Member

    Joined:
    Sep 29, 2016
    Messages:
    144
    Likes Received:
    2
    Thanks
     
  18. Zeeh

    Zeeh Rallyforrivers.org

    Joined:
    Mar 20, 2015
    Messages:
    745
    Likes Received:
    30
    thnx.
     
  19. fake1

    fake1 Member

    Joined:
    Feb 8, 2017
    Messages:
    68
    Likes Received:
    2
    thank you!
     
  20. koko_love

    koko_love Member

    Joined:
    Jun 3, 2015
    Messages:
    547
    Likes Received:
    19
    Thank you :)
     
  21. plwww

    plwww Active Member

    Joined:
    May 28, 2016
    Messages:
    575
    Likes Received:
    34
    thanks