Enrique Iglesias Ft. Kelis - Not In Love (NRJHITSHD-1080i-DD2.0-IboYLDz)-HDMania

Discussion in 'NRJ HITS' started by By.YLDz, Apr 9, 2016.

  1. By.YLDz

    By.YLDz Hayley Williams Fan :) Capper

    Joined:
    Oct 7, 2013
    Messages:
    366
    Likes Received:
    4,153
    CappeD IboYLDz

    [​IMG] [​IMG] [​IMG] [​IMG] [​IMG] [​IMG] [​IMG] [​IMG] [​IMG]

    Format : MPEG-TS
    File size : 240 MiB
    Duration : 3mn 47s
    Overall bit rate mode : Variable
    Overall bit rate : 8 848 Kbps

    Video
    ID : 310 (0x136)
    Menu ID : 8503 (0x2137)
    Format : AVC
    Format/Info : Advanced Video Codec
    Format profile : [email protected]
    Format settings, CABAC : Yes
    Format settings, ReFrames : 4 frames
    Codec ID : 27
    Duration : 3mn 47s
    Bit rate : 8 217 Kbps
    Width : 1 920 pixels
    Height : 1 080 pixels
    Display aspect ratio : 16:9
    Frame rate : 25.000 fps
    Standard : Component
    Color space : YUV
    Chroma subsampling : 4:2:0
    Bit depth : 8 bits
    Scan type : MBAFF
    Scan type, store method : Interleaved fields
    Scan order : Top Field First
    Bits/(Pixel*Frame) : 0.159
    Stream size : 223 MiB (93%)
    Color range : Limited
    Color primaries : BT.709
    Transfer characteristics : BT.709
    Matrix coefficients : BT.709

    Audio
    ID : 321 (0x141)
    Menu ID : 8503 (0x2137)
    Format : AC-3
    Format/Info : Audio Coding 3
    Mode extension : CM (complete main)
    Format settings, Endianness : Big
    Codec ID : 6
    Duration : 3mn 47s
    Bit rate mode : Constant
    Bit rate : 192 Kbps
    Channel(s) : 2 channels
    Channel positions : Front: L R
    Sampling rate : 48.0 KHz
    Frame rate : 31.250 fps (1536 spf)
    Compression mode : Lossy
    Delay relative to video : -200ms
    Stream size : 5.21 MiB (2%)
    Language : French

    Hidden Content:
    You must either reply or click 'Like' to see the hidden information contained here.
    Rar Pass : IboYLDz
     
    noriscout, tf135, iqson and 6 others like this.
  2. Loading...


  3. DETOX

    DETOX VIXX▿T-ARA▿B.A.P▿BTS▿JBJ▿WANNA ONE▿WINNER▿BIGBANG V . I . P. Uploader

    Joined:
    Feb 20, 2014
    Messages:
    3,914
    Likes Received:
    29,333
    Thank you so much! :super::love:
     
    By.YLDz likes this.
  4. alex

    alex Well-Known Member

    Joined:
    Nov 21, 2013
    Messages:
    4,573
    Likes Received:
    370
    Thank you
     
  5. nolynexor88

    nolynexor88 Well-Known Member

    Joined:
    Sep 29, 2015
    Messages:
    1,243
    Likes Received:
    82
    thank you :)
     
  6. rhea

    rhea Well-Known Member

    Joined:
    Jan 6, 2014
    Messages:
    7,132
    Likes Received:
    795
    thank you so much! :)
     
  7. Dreamer

    Dreamer Lana Del Rey ♥ Halsey Capper V . I . P. Uploader

    Joined:
    Dec 4, 2014
    Messages:
    2,905
    Likes Received:
    4,589
    Thank you so much!
     
  8. Praveen867

    Praveen867 Member

    Joined:
    Nov 14, 2016
    Messages:
    605
    Likes Received:
    11
    IboYLDz
     
  9. allynat

    allynat Member

    Joined:
    Dec 25, 2017
    Messages:
    363
    Likes Received:
    6
    Thank you