Eminem - We Made You (MTVHD) 1080i [DroneSmelter]

Discussion in 'MTV HD' started by DroneSmelter, Jan 7, 2014.

  1. DroneSmelter

    DroneSmelter Member Capper

    Joined:
    Dec 31, 2013
    Messages:
    47
    Likes Received:
    114
    [​IMG]
    Code:
    Format                                  : MPEG-TS
    File size                                : 409 MiB
    Duration                                : 4mn 39s
    Overall bit rate mode                    : Variable
    Overall bit rate                        : 12.3 Mbps
    
    Format                                  : AVC
    Format/Info                              : Advanced Video Codec
    Format profile                          : [email protected]
    Format settings, CABAC                  : Yes
    Format settings, ReFrames                : 4 frames
    Codec ID                                : 27
    Duration                                : 4mn 39s
    Bit rate                                : 11.1 Mbps
    Width                                    : 1 920 pixels
    Height                                  : 1 080 pixels
    Display aspect ratio                    : 16:9
    Frame rate                              : 25.000 fps
    Standard                                : Component
    Color space                              : YUV
    Chroma subsampling                      : 4:2:0
    Bit depth                                : 8 bits
    Scan type                                : Interlaced
    Scan order                              : Top Field First
    Bits/(Pixel*Frame)                      : 0.214
    Stream size                              : 369 MiB (90%)
    
    Audio #1
    Format                                  : MPEG Audio
    Format version                          : Version 1
    Format profile                          : Layer 2
    Codec ID                                : 4
    Duration                                : 4mn 39s
    Bit rate mode                            : Constant
    Bit rate                                : 192 Kbps
    Channel(s)                              : 2 channels
    Sampling rate                            : 48.0 KHz
    Compression mode                        : Lossy
    Delay relative to video                  : 63ms
    Stream size                              : 6.39 MiB (2%)
    
    Audio #2
    Format                                  : AC-3
    Format/Info                              : Audio Coding 3
    Mode extension                          : CM (complete main)
    Format settings, Endianness              : Big
    Codec ID                                : 6
    Duration                                : 4mn 39s
    Bit rate mode                            : Constant
    Bit rate                                : 384 Kbps
    Channel(s)                              : 2 channels
    Channel positions                        : Front: L R
    Sampling rate                            : 48.0 KHz
    Bit depth                                : 16 bits
    Compression mode                        : Lossy
    Delay relative to video                  : 37ms
    Stream size                              : 12.8 MiB (3%)
    Links:
    Hidden Content:
    You must reply before you can see the hidden data contained here.
     
    Last edited: Jan 25, 2014
  2. Loading...


  3. swarup dutta

    swarup dutta Member

    Joined:
    Dec 29, 2013
    Messages:
    77
    Likes Received:
    3
  4. pablo palormo

    pablo palormo Member

    Joined:
    Oct 27, 2013
    Messages:
    177
    Likes Received:
    2
    thanks!!!
     
  5. ePhysician

    ePhysician Active Member

    Joined:
    Jan 12, 2014
    Messages:
    455
    Likes Received:
    128
    Thanks
     
  6. WilHoP

    WilHoP Member

    Joined:
    Jan 30, 2014
    Messages:
    205
    Likes Received:
    0
    GRACIASS
     
  7. grepitu

    grepitu Member

    Joined:
    Feb 1, 2014
    Messages:
    44
    Likes Received:
    7
     
  8. mtrong

    mtrong New Member

    Joined:
    Mar 28, 2014
    Messages:
    1
    Likes Received:
    0
    thanks!!!:)
     
  9. MCTR

    MCTR Active Member

    Joined:
    Feb 23, 2014
    Messages:
    297
    Likes Received:
    42
    thanks
     
  10. Dreamer

    Dreamer Lana Del Rey ♥ Halsey Capper V . I . P. Uploader

    Joined:
    Dec 4, 2014
    Messages:
    2,905
    Likes Received:
    4,596
    thanks!!
     
    sinshin likes this.
  11. sinshin

    sinshin Active Member

    Joined:
    Jan 27, 2015
    Messages:
    106
    Likes Received:
    62
     
  12. daronmalakian

    daronmalakian Member

    Joined:
    Sep 30, 2014
    Messages:
    310
    Likes Received:
    17
    thx so much
     
  13. brian182

    brian182 Well-Known Member

    Joined:
    Oct 14, 2013
    Messages:
    1,877
    Likes Received:
    88
    thanks!! lol
     
  14. tf135

    tf135 Well-Known Member

    Joined:
    Nov 14, 2014
    Messages:
    2,580
    Likes Received:
    166
    thank you
     
  15. kassiu wehmuth

    kassiu wehmuth Member

    Joined:
    Jun 7, 2015
    Messages:
    207
    Likes Received:
    13
     
  16. klaus

    klaus Active Member

    Joined:
    Sep 11, 2014
    Messages:
    1,078
    Likes Received:
    20
    thank you
     
  17. kamikkadze

    kamikkadze Member

    Joined:
    Jun 12, 2015
    Messages:
    50
    Likes Received:
    1
    dead link
     
  18. akon111

    akon111 Member

    Joined:
    Dec 29, 2015
    Messages:
    227
    Likes Received:
    5
    thanks
     
  19. Ivan1980

    Ivan1980 Member

    Joined:
    Jan 9, 2016
    Messages:
    95
    Likes Received:
    1
    thanks
     
  20. Cj2016

    Cj2016 Member

    Joined:
    Jan 15, 2016
    Messages:
    39
    Likes Received:
    1
    thanks!!!
     
  21. yonita

    yonita Active Member

    Joined:
    Mar 7, 2016
    Messages:
    468
    Likes Received:
    59
    gracias