WEB-RiP Eminem ft. Beyoncé - Walk On Water - 1080P

Discussion in 'YOUTUBE' started by Matheus10, Dec 26, 2017.

  1. Matheus10

    Matheus10 Active Member

    Joined:
    Oct 2, 2017
    Messages:
    284
    Likes Received:
    247
    [​IMG]
    Code:
    General
    Format                         : MPEG-4
    Format profile                 : Base Media
    Codec ID                       : isom (isom/iso2/avc1/mp41)
    File size                      : 57.1 MiB
    Duration                       : 5 min 21 s
    Overall bit rate               : 1 492 kb/s
    Writing application            : Lavf55.33.100
    
    Video
    ID                             : 1
    Format                         : AVC
    Format/Info                    : Advanced Video Codec
    Format profile                 : [email protected]
    Format settings, CABAC         : Yes
    Format settings, RefFrames     : 3 frames
    Codec ID                       : avc1
    Codec ID/Info                  : Advanced Video Coding
    Duration                       : 5 min 21 s
    Bit rate                       : 1 360 kb/s
    Width                          : 1 920 pixels
    Height                         : 1 080 pixels
    Display aspect ratio           : 16:9
    Frame rate mode                : Variable
    Frame rate                     : 23.976 (24000/1001) FPS
    Minimum frame rate             : 23.974 FPS
    Maximum frame rate             : 23.981 FPS
    Color space                    : YUV
    Chroma subsampling             : 4:2:0
    Bit depth                      : 8 bits
    Scan type                      : Progressive
    Bits/(Pixel*Frame)             : 0.027
    Stream size                    : 52.1 MiB (91%)
    Color range                    : Limited
    Color primaries                : BT.709
    Transfer characteristics       : BT.709
    Matrix coefficients            : BT.709
    
    Audio
    ID                             : 2
    Format                         : AAC
    Format/Info                    : Advanced Audio Codec
    Format profile                 : LC
    Codec ID                       : 40
    Duration                       : 5 min 21 s
    Bit rate mode                  : Constant
    Bit rate                       : 126 kb/s
    Channel(s)                     : 2 channels
    Channel positions              : Front: L R
    Sampling rate                  : 44.1 kHz
    Frame rate                     : 43.066 FPS (1024 SPF)
    Compression mode               : Lossy
    Stream size                    : 4.81 MiB (8%)
    Default                        : Yes
    Alternate group                : 1
    
    Hidden Content:
    You must either reply or click 'Like' to see the hidden information contained here.
    Hidden Content:
    You must reply before you can see the hidden data contained here.
     
    sinshin likes this.
  2. Loading...