Demi Lovato - Tell Me You Love Me MULTISHOWHD 1080i HDTV DD5.1 H.264 CELOBRAZiL-HDMania

Discussion in 'MULTISHOW HD' started by CELOBRAZiL, Jan 13, 2018.

  1. CELOBRAZiL

    CELOBRAZiL Well-Known Member Capper V . I . P. Donor

    Joined:
    Oct 2, 2013
    Messages:
    4,250
    Likes Received:
    13,398
    Demi Lovato - Tell Me You Love Me MULTISHOWHD 1080i HDTV DD5.1 H.264 CELOBRAZiL-HDMania

    [​IMG]



    Format : MPEG-TS
    File size : 353 MiB
    Duration : 4mn 6s
    Overall bit rate mode : Variable
    Overall bit rate : 12.0 Mbps

    Video
    ID : 1328 (0x530)
    Menu ID : 1336 (0x538)
    Format : AVC
    Format/Info : Advanced Video Codec
    Format profile : [email protected]
    Format settings, CABAC : Yes
    Format settings, ReFrames : 4 frames
    Codec ID : 27
    Duration : 4mn 8s
    Bit rate : 11.0 Mbps
    Width : 1 920 pixels
    Height : 1 080 pixels
    Display aspect ratio : 16:9
    Frame rate : 29.970 fps
    Color space : YUV
    Chroma subsampling : 4:2:0
    Bit depth : 8 bits
    Scan type : MBAFF
    Scan order : Top Field First
    Bits/(Pixel*Frame) : 0.178
    Stream size : 328 MiB (93%)

    Audio
    ID : 1329 (0x531)
    Menu ID : 1336 (0x538)
    Format : AC-3
    Format/Info : Audio Coding 3
    Mode extension : CM (complete main)
    Format settings, Endianness : Big
    Codec ID : 129
    Duration : 4mn 8s
    Bit rate mode : Constant
    Bit rate : 384 Kbps
    Channel(s) : 6 channels
    Channel positions : Front: L C R, Side: L R, LFE
    Sampling rate : 48.0 KHz
    Bit depth : 16 bits
    Compression mode : Lossy
    Stream size : 11.4 MiB (3%)
    Language : English

    Link(s):
    Hidden Content:
    You must either reply or click 'Like' to see the hidden information contained here.
     
    ROCK500, DDLovato, rhea and 3 others like this.
  2. Loading...


  3. CELOBRAZiL

    CELOBRAZiL Well-Known Member Capper V . I . P. Donor

    Joined:
    Oct 2, 2013
    Messages:
    4,250
    Likes Received:
    13,398
  4. rvden

    rvden Well-Known Member

    Joined:
    Apr 9, 2017
    Messages:
    432
    Likes Received:
    284
    Thank you!
     
    CELOBRAZiL likes this.
  5. c_gbv

    c_gbv Member

    Joined:
    Mar 19, 2017
    Messages:
    63
    Likes Received:
    2
    Thanks
     
    CELOBRAZiL likes this.
  6. rhea

    rhea Well-Known Member

    Joined:
    Jan 6, 2014
    Messages:
    7,132
    Likes Received:
    795
    thanks
     
    CELOBRAZiL likes this.
  7. DDLovato

    DDLovato Active Member

    Joined:
    Nov 12, 2015
    Messages:
    216
    Likes Received:
    61
    Thanks
     
    CELOBRAZiL likes this.