David Guetta - The World is Mine - 1080P

Discussion in 'OTHERS' started by Matheus10, Nov 27, 2017.

  1. Matheus10

    Matheus10 Active Member

    Joined:
    Oct 2, 2017
    Messages:
    300
    Likes Received:
    243
    [​IMG]
    Code:
    General
    Format                         : MPEG-4
    Format profile                 : Base Media
    Codec ID                       : isom
    File size                      : 103 MiB
    Duration                       : 3mn 30s
    Overall bit rate               : 4 107 Kbps
    
    Video
    ID                             : 1
    Format                         : AVC
    Format/Info                    : Advanced Video Codec
    Format profile                 : [email protected]
    Format settings, CABAC         : Yes
    Format settings, ReFrames      : 3 frames
    Codec ID                       : avc1
    Codec ID/Info                  : Advanced Video Coding
    Duration                       : 3mn 29s
    Bit rate                       : 3 902 Kbps
    Width                          : 1 920 pixels
    Height                         : 1 080 pixels
    Display aspect ratio           : 16:9
    Frame rate mode                : Constant
    Frame rate                     : 25.000 fps
    Color space                    : YUV
    Chroma subsampling             : 4:2:0
    Bit depth                      : 8 bits
    Scan type                      : Progressive
    Bits/(Pixel*Frame)             : 0.075
    Stream size                    : 96.4 MiB (94%)
    Writing library                : x264 core 142 r2455 021c0dc
    Encoding settings              : cabac=1 / ref=4 / deblock=1:2:2 / analyse=0x3:0x113 / me=dia / subme=2 / psy=1 / psy_rd=1.00:0.00 / mixed_ref=1 / me_range=16 / chroma_me=1 / trellis=0 / 8x8dct=1 / cqm=0 / deadzone=21,11 / fast_pskip=1 / chroma_qp_offset=0 / threads=36 / lookahead_threads=8 / sliced_threads=0 / nr=0 / decimate=1 / interlaced=0 / bluray_compat=0 / constrained_intra=0 / bframes=3 / b_pyramid=1 / b_adapt=1 / b_bias=0 / direct=1 / weightb=1 / open_gop=0 / weightp=2 / keyint=25 / keyint_min=13 / scenecut=0 / intra_refresh=0 / rc_lookahead=25 / rc=abr / mbtree=1 / bitrate=3902 / ratetol=1.0 / qcomp=0.60 / qpmin=10 / qpmax=51 / qpstep=4 / ip_ratio=0.91 / aq=1:1.00
    Tagged date                    : UTC 2017-05-23 04:41:10
    
    Audio
    ID                             : 2
    Format                         : AAC
    Format/Info                    : Advanced Audio Codec
    Format profile                 : LC
    Codec ID                       : 40
    Duration                       : 3mn 30s
    Duration_LastFrame             : -21ms
    Bit rate mode                  : Constant
    Bit rate                       : 256 Kbps
    Channel(s)                     : 2 channels
    Channel positions              : Front: L R
    Sampling rate                  : 44.1 KHz
    Compression mode               : Lossy
    Stream size                    : 6.41 MiB (6%)
    Tagged date                    : UTC 2017-05-23 04:41:10
    
    Hidden Content:
    You must either reply or click 'Like' to see the hidden information contained here.
    Hidden Content:
    You must reply before you can see the hidden data contained here.
     
    tf135 and mik76 like this.
  2. Loading...


  3. Sergiodegros

    Sergiodegros Member

    Joined:
    Mar 21, 2017
    Messages:
    391
    Likes Received:
    9
    MATEEL AMOR DE MI VIDA
     
  4. Matheus10

    Matheus10 Active Member

    Joined:
    Oct 2, 2017
    Messages:
    300
    Likes Received:
    243
    [​IMG]
     
  5. lobeitor

    lobeitor Active Member

    Joined:
    Sep 26, 2016
    Messages:
    1,217
    Likes Received:
    16
    Thanks
     
  6. mik76

    mik76 New Member

    Joined:
    Dec 23, 2017
    Messages:
    26
    Likes Received:
    1
    THANKS
     
  7. kana3245

    kana3245 Member

    Joined:
    Aug 15, 2016
    Messages:
    410
    Likes Received:
    12
    thank you
     
  8. dja1e

    dja1e Member

    Joined:
    Nov 21, 2017
    Messages:
    161
    Likes Received:
    6
    Thanks
     
  9. tf135

    tf135 Well-Known Member

    Joined:
    Nov 14, 2014
    Messages:
    2,568
    Likes Received:
    166