HDTV Camila Cabello - Never Be the Same (The Tonight Show Starring Jimmy Fallon 01-10-2018) 1080i HDTV

Discussion in 'HD Live Performances' started by rgf72k, Jan 11, 2018.

  1. rgf72k

    rgf72k Founder Staff Member AdMiN Capper Uploader

    Joined:
    Oct 1, 2013
    Messages:
    1,147
    Likes Received:
    16,874
    Camila Cabello - Never Be the Same
    (The Tonight Show Starring Jimmy Fallon 01-10-2018)
    1080i HDTV DD2.0 H.264-HDMania

    [​IMG]
    [​IMG]
    [​IMG] [​IMG] [​IMG]

    General
    ID : 1 (0x1)
    Complete name : Camila Cabello - Never Be the Same (The Tonight Show Starring Jimmy Fallon 01-10-2018) 1080i HDTV DD2.0 H.264-HDMania.ts
    Format : MPEG-TS
    File size : 542 MiB
    Duration : 5 min 20 s
    Overall bit rate mode : Variable
    Overall bit rate : 14.2 Mb/s

    Video
    ID : 4113 (0x1011)
    Menu ID : 1 (0x1)
    Format : AVC
    Format/Info : Advanced Video Codec
    Format profile : [email protected]
    Format settings : CABAC / 4 Ref Frames
    Format settings, CABAC : Yes
    Format settings, RefFrames : 4 frames
    Codec ID : 27
    Duration : 5 min 20 s
    Bit rate mode : Variable
    Bit rate : 13.1 Mb/s
    Maximum bit rate : 20.0 Mb/s
    Width : 1 920 pixels
    Height : 1 080 pixels
    Display aspect ratio : 16:9
    Frame rate : 29.970 (30000/1001) FPS
    Color space : YUV
    Chroma subsampling : 4:2:0
    Bit depth : 8 bits
    Scan type : Interlaced
    Scan type, store method : Separated fields
    Scan order : Top Field First
    Bits/(Pixel*Frame) : 0.211
    Stream size : 500 MiB (92%)
    Color range : Limited
    Color primaries : BT.709
    Transfer characteristics : BT.709
    Matrix coefficients : BT.709

    Audio
    ID : 4352 (0x1100)
    Menu ID : 1 (0x1)
    Format : AC-3
    Format/Info : Audio Coding 3
    Codec ID : 129
    Duration : 5 min 20 s
    Bit rate mode : Constant
    Bit rate : 384 kb/s
    Channel(s) : 2 channels
    Channel positions : Front: L R
    Sampling rate : 48.0 kHz
    Frame rate : 31.250 FPS (1536 SPF)
    Bit depth : 16 bits
    Compression mode : Lossy
    Stream size : 14.7 MiB (3%)
    Language : English
    Service kind : Complete Main

    Download:

    Hidden Content:
    You must either reply or click 'Like' to see the hidden information contained here.
    Capped By Me :victory:
     
  2. Loading...


  3. Thassyo

    Thassyo Well-Known Member

    Joined:
    Oct 9, 2013
    Messages:
    2,537
    Likes Received:
    1,048
    Thanks for Camila!
     
    pinky2 likes this.
  4. meloman67

    meloman67 Active Member

    Joined:
    Jun 8, 2014
    Messages:
    882
    Likes Received:
    130
  5. edgar

    edgar Well-Known Member V . I . P.

    Joined:
    Oct 12, 2013
    Messages:
    1,803
    Likes Received:
    1,785
    Thank you so Much :love::love::love::love:
     
  6. Rihanna

    Rihanna Member

    Joined:
    Feb 9, 2015
    Messages:
    109
    Likes Received:
    9
    Thanks you
     
  7. rhea

    rhea Well-Known Member

    Joined:
    Jan 6, 2014
    Messages:
    7,132
    Likes Received:
    790
    thank you
     
  8. fisherTW

    fisherTW Well-Known Member

    Joined:
    Dec 3, 2014
    Messages:
    1,709
    Likes Received:
    184
    Thank you.:)
     
  9. guanche1985

    guanche1985 Active Member

    Joined:
    Nov 23, 2016
    Messages:
    542
    Likes Received:
    46
  10. Hyrus

    Hyrus Arianator / Selenator / Victorian / Saxobeat / LBS Donor

    Joined:
    Feb 9, 2015
    Messages:
    1,361
    Likes Received:
    1,110
    Thanks so much for the gorgeous Camila!! :love::love::)
    @rgf72k Was there any other talk / game / or sketch segment with Camila? If so, can you post it too, please? Thank you!
     
  11. Vagabond

    Vagabond Member

    Joined:
    Jun 23, 2014
    Messages:
    191
    Likes Received:
    0
    Thank you!!
     
  12. Pavulon

    Pavulon Well-Known Member

    Joined:
    Mar 22, 2016
    Messages:
    3,808
    Likes Received:
    492
    thank you very much :D
     
  13. withcap

    withcap Well-Known Member

    Joined:
    Oct 29, 2013
    Messages:
    1,872
    Likes Received:
    115
    Thanks for Camila!
     
  14. miniidiot

    miniidiot New Member

    Joined:
    Oct 23, 2017
    Messages:
    19
    Likes Received:
    0
    Thanks for Camila!
     
  15. toonbbv

    toonbbv Well-Known Member

    Joined:
    Dec 11, 2013
    Messages:
    1,691
    Likes Received:
    81
    thank you
     
  16. Sam.the.Man

    Sam.the.Man Active Member

    Joined:
    Dec 7, 2015
    Messages:
    174
    Likes Received:
    180
  17. voidstiles

    voidstiles Active Member

    Joined:
    May 19, 2016
    Messages:
    271
    Likes Received:
    85
  18. jeaneyne

    jeaneyne Well-Known Member

    Joined:
    Oct 21, 2013
    Messages:
    875
    Likes Received:
    516
  19. power21580

    power21580 Member

    Joined:
    Apr 12, 2016
    Messages:
    171
    Likes Received:
    3
    Thank you so Much
     
  20. killers23

    killers23 Active Member

    Joined:
    Feb 27, 2015
    Messages:
    729
    Likes Received:
    93
  21. 010juninho

    010juninho Active Member

    Joined:
    Jan 16, 2016
    Messages:
    771
    Likes Received:
    26
    Thank You