HDTV Camila Cabello - Never Be The Same - Good Morning America (1-12-2018) 720p

Discussion in 'HD Live Performances' started by DonWal, Jan 12, 2018.

  1. DonWal

    DonWal Well-Known Member Capper V . I . P.

    Joined:
    May 11, 2015
    Messages:
    1,043
    Likes Received:
    2,013
    Camila Cabello
    Good Morning America (Jan-12-2018)
    Song [Never Be The Same]

    MPEG-2 TS | 575 MB | 7mn 39s | 720p

    [​IMG] [​IMG] [​IMG] [​IMG] [​IMG] [​IMG]

    Hidden Content:
    You must reply before you can see the hidden data contained here.
     
  2. Loading...


  3. detroit1

    detroit1 Well-Known Member

    Joined:
    Jan 6, 2014
    Messages:
    2,668
    Likes Received:
    347
    thank you
     
  4. eykhilde

    eykhilde Member

    Joined:
    Oct 18, 2015
    Messages:
    201
    Likes Received:
    9
    Thanks for Camilla
     
  5. zuiderheide

    zuiderheide Well-Known Member

    Joined:
    Nov 18, 2013
    Messages:
    2,195
    Likes Received:
    66
  6. teflabyte

    teflabyte Member

    Joined:
    Aug 5, 2017
    Messages:
    530
    Likes Received:
    19
    Thank you!
     
  7. Nytro

    Nytro Member

    Joined:
    Nov 25, 2015
    Messages:
    197
    Likes Received:
    24
    thanks man
     
  8. edgar

    edgar Well-Known Member V . I . P.

    Joined:
    Oct 12, 2013
    Messages:
    1,804
    Likes Received:
    1,786
    Thank you very Much for Camila:love::love::love::love:
    Very good quality:)
     
  9. harmonizer54

    harmonizer54 Well-Known Member

    Joined:
    Jul 21, 2016
    Messages:
    348
    Likes Received:
    264
    thank you so much :)
     
  10. CELOBRAZiL

    CELOBRAZiL Well-Known Member Capper V . I . P. Donor

    Joined:
    Oct 2, 2013
    Messages:
    4,256
    Likes Received:
    13,424
    Thank you so much! :)
     
  11. Darkangel

    Darkangel Taylor Fan Staff Member Super Moderator Capper V . I . P.

    Joined:
    Oct 7, 2013
    Messages:
    2,502
    Likes Received:
    21,856
    Thanks so much for Camila :)
     
  12. rgf72k

    rgf72k Founder Staff Member AdMiN Capper Uploader

    Joined:
    Oct 1, 2013
    Messages:
    1,151
    Likes Received:
    16,892
    Amazing!, thank you so much! :D
     
  13. meloman67

    meloman67 Active Member

    Joined:
    Jun 8, 2014
    Messages:
    883
    Likes Received:
    130
  14. Hyrus

    Hyrus Arianator / Selenator / Victorian / Saxobeat / LBS Donor

    Joined:
    Feb 9, 2015
    Messages:
    1,363
    Likes Received:
    1,117
    Thanks again for the sweet Camila :D:love::love:
     
  15. CELOBRAZiL

    CELOBRAZiL Well-Known Member Capper V . I . P. Donor

    Joined:
    Oct 2, 2013
    Messages:
    4,256
    Likes Received:
    13,424
    Camila Cabello - Never Be The Same - Good Morning America [12-Jan-2018] ABC 720p HDTV-DonWal

    [​IMG]



    Format : MPEG-TS
    File size : 575 MiB
    Duration : 7mn 39s
    Overall bit rate mode : Variable
    Overall bit rate : 10.5 Mbps
    Movie name : GOOD MORNING AMERICA
    Law rating : None

    Video
    ID : 547 (0x223)
    Menu ID : 1 (0x1)
    Format : MPEG Video
    Format version : Version 2
    Format profile : [email protected]
    Format settings, BVOP : Yes
    Format settings, Matrix : Custom
    Format settings, GOP : Variable
    Codec ID : 2
    Duration : 7mn 38s
    Bit rate mode : Variable
    Bit rate : 9 594 Kbps
    Maximum bit rate : 24.0 Mbps
    Width : 1 280 pixels
    Height : 720 pixels
    Display aspect ratio : 16:9
    Active Format Description : Letterbox 16:9 image
    Frame rate : 59.940 fps
    Color space : YUV
    Chroma subsampling : 4:2:0
    Bit depth : 8 bits
    Scan type : Progressive
    Compression mode : Lossy
    Bits/(Pixel*Frame) : 0.174
    Time code of first frame : 00:00:00;00
    Time code source : Group of pictures header
    GOP, Open/Closed : Open
    GOP, Open/Closed of first frame : Closed
    Stream size : 525 MiB (91%)

    Audio
    ID : 545 (0x221)
    Menu ID : 1 (0x1)
    Format : AC-3
    Format/Info : Audio Coding 3
    Mode extension : CM (complete main)
    Format settings, Endianness : Big
    Codec ID : 129
    Duration : 7mn 38s
    Bit rate mode : Constant
    Bit rate : 384 Kbps
    Channel(s) : 6 channels
    Channel positions : Front: L C R, Side: L R, LFE
    Sampling rate : 48.0 KHz
    Bit depth : 16 bits
    Compression mode : Lossy
    Delay relative to video : 9ms
    Stream size : 21.0 MiB (4%)
    Language : English

    Text #1
    ID : 547 (0x223)-CC1
    Menu ID : 1 (0x1)
    Format : EIA-608
    Muxing mode : A/53 / DTVCC Transport
    Muxing mode, more info : Muxed in Video #1
    Duration : 7mn 38s
    Bit rate mode : Constant
    Stream size : 0.00 Byte (0%)

    Text #2
    ID : 547 (0x223)-CC3
    Menu ID : 1 (0x1)
    Format : EIA-608
    Muxing mode : A/53 / DTVCC Transport
    Muxing mode, more info : Muxed in Video #1
    Duration : 7mn 38s
    Bit rate mode : Constant
    Stream size : 0.00 Byte (0%)

    Text #3
    ID : 547 (0x223)-1
    Menu ID : 1 (0x1)
    Format : EIA-708
    Muxing mode : A/53 / DTVCC Transport
    Muxing mode, more info : Muxed in Video #1
    Duration : 7mn 38s
    Bit rate mode : Constant
    Stream size : 0.00 Byte (0%)

    Text #4
    ID : 547 (0x223)-2
    Menu ID : 1 (0x1)
    Format : EIA-708
    Muxing mode : A/53 / DTVCC Transport
    Muxing mode, more info : Muxed in Video #1
    Duration : 7mn 38s
    Bit rate mode : Constant
    Stream size : 0.00 Byte (0%)

    Text #5
    ID : 547 (0x223)-3
    Menu ID : 1 (0x1)
    Format : EIA-708
    Muxing mode : A/53 / DTVCC Transport
    Muxing mode, more info : Muxed in Video #1
    Duration : 7mn 38s
    Bit rate mode : Constant
    Stream size : 0.00 Byte (0%)

    Text #6
    ID : 547 (0x223)-5
    Menu ID : 1 (0x1)
    Format : EIA-708
    Muxing mode : A/53 / DTVCC Transport
    Muxing mode, more info : Muxed in Video #1
    Duration : 7mn 38s
    Bit rate mode : Constant
    Stream size : 0.00 Byte (0%)

    Link(s):
    Hidden Content:
    You must either reply or click 'Like' to see the hidden information contained here.
     
  16. JohnBard

    JohnBard Member

    Joined:
    Apr 13, 2016
    Messages:
    51
    Likes Received:
    4
    thank you!!!!
     
  17. rober31

    rober31 Member

    Joined:
    Jun 2, 2017
    Messages:
    181
    Likes Received:
    8
    thanks!!
     
  18. killers23

    killers23 Active Member

    Joined:
    Feb 27, 2015
    Messages:
    729
    Likes Received:
    93
  19. power21580

    power21580 Member

    Joined:
    Apr 12, 2016
    Messages:
    171
    Likes Received:
    3
    thank you
     
  20. Pavulon

    Pavulon Well-Known Member

    Joined:
    Mar 22, 2016
    Messages:
    3,808
    Likes Received:
    492
    thanks
     
  21. geoharo

    geoharo Member

    Joined:
    Apr 28, 2016
    Messages:
    180
    Likes Received:
    14
    thank you