UHDTV 4K Camila Cabello + Demi Lovato - MTV Europe Music Awards - 2017-11-12 (4K UHD) (kmfan)

Discussion in 'HD Live Performances' started by Hyrus, Nov 15, 2017.

  1. Hyrus

    Hyrus Arianator / Selenator / Victorian / Saxobeat / LBS Donor

    Joined:
    Feb 9, 2015
    Messages:
    1,355
    Likes Received:
    1,100
    Camila performs Havana.
    Demi performs Sorry Not Sorry & Tell Me You Love Me.

    [​IMG]
    [​IMG]
    [​IMG]
    [​IMG]
    [​IMG]
    [​IMG]

    Thumbnails:
    [​IMG]
    Video
    ID : 101 (0x65)
    Menu ID : 2 (0x2)
    Format : HEVC
    Format/Info : High Efficiency Video Coding
    Format profile : Main [email protected]@Main
    Codec ID : 36
    Duration : 3 min 57 s
    Bit rate : 17.0 Mb/s
    Width : 3 840 pixels
    Height : 2 160 pixels
    Display aspect ratio : 16:9
    Frame rate : 50.000 FPS
    Color space : YUV
    Chroma subsampling : 4:2:0
    Bit depth : 10 bits
    Bits/(Pixel*Frame) : 0.041
    Stream size : 481 MiB (94%)
    Color range : Limited
    Color primaries : BT.709
    Transfer characteristics : BT.709
    Matrix coefficients : BT.709

    Audio
    ID : 102 (0x66)
    Menu ID : 2 (0x2)
    Format : MPEG Audio
    Format version : Version 1
    Format profile : Layer 2
    Codec ID : 3
    Duration : 3 min 57 s
    Bit rate mode : Constant
    Bit rate : 192 kb/s
    Channel(s) : 2 channels
    Sampling rate : 48.0 kHz
    Compression mode : Lossy
    Delay relative to video : 7 ms
    Stream size : 5.45 MiB (1%)
    Language : English

    [​IMG]
    Video
    ID : 101 (0x65)
    Menu ID : 2 (0x2)
    Format : HEVC
    Format/Info : High Efficiency Video Coding
    Format profile : Main [email protected]@Main
    Codec ID : 36
    Duration : 4 min 35 s
    Bit rate : 17.0 Mb/s
    Width : 3 840 pixels
    Height : 2 160 pixels
    Display aspect ratio : 16:9
    Frame rate : 50.000 FPS
    Color space : YUV
    Chroma subsampling : 4:2:0
    Bit depth : 10 bits
    Bits/(Pixel*Frame) : 0.041
    Stream size : 558 MiB (94%)
    Color range : Limited
    Color primaries : BT.709
    Transfer characteristics : BT.709
    Matrix coefficients : BT.709

    Audio
    ID : 102 (0x66)
    Menu ID : 2 (0x2)
    Format : MPEG Audio
    Format version : Version 1
    Format profile : Layer 2
    Codec ID : 3
    Duration : 4 min 36 s
    Bit rate mode : Constant
    Bit rate : 192 kb/s
    Channel(s) : 2 channels
    Sampling rate : 48.0 kHz
    Compression mode : Lossy
    Delay relative to video : 39 ms
    Stream size : 6.32 MiB (1%)
    Language : English

    Download Links:
    Hidden Content:
    You must reply before you can see the hidden data contained here.
    Capped by kmfan.
     
  2. Loading...


  3. AlexQ

    AlexQ Well-Known Member Capper

    Joined:
    Sep 25, 2017
    Messages:
    92
    Likes Received:
    617
    Thanks
     
  4. exterminador

    exterminador Well-Known Member

    Joined:
    Jul 3, 2016
    Messages:
    1,854
    Likes Received:
    171
  5. Danny82

    Danny82 Well-Known Member

    Joined:
    May 28, 2016
    Messages:
    2,075
    Likes Received:
    540
    Thank you so much for sharing!!!
     
  6. power21580

    power21580 Member

    Joined:
    Apr 12, 2016
    Messages:
    171
    Likes Received:
    3
    Thanks!
     
  7. rollergirl1621

    rollergirl1621 Member

    Joined:
    Aug 24, 2017
    Messages:
    88
    Likes Received:
    11
  8. miniidiot

    miniidiot New Member

    Joined:
    Oct 23, 2017
    Messages:
    19
    Likes Received:
    0
  9. MrPrash

    MrPrash Member

    Joined:
    Oct 4, 2016
    Messages:
    83
    Likes Received:
    5
    Thanks! Was waiting for this!
     
  10. guanche1985

    guanche1985 Active Member

    Joined:
    Nov 23, 2016
    Messages:
    539
    Likes Received:
    46
  11. rhea

    rhea Well-Known Member

    Joined:
    Jan 6, 2014
    Messages:
    7,095
    Likes Received:
    781
    thank you so much
     
  12. GeeCee

    GeeCee Member

    Joined:
    Apr 25, 2016
    Messages:
    192
    Likes Received:
    10
    Thanks
     
  13. detroit1

    detroit1 Well-Known Member

    Joined:
    Jan 6, 2014
    Messages:
    2,651
    Likes Received:
    346
    thank you
     
  14. detroit1

    detroit1 Well-Known Member

    Joined:
    Jan 6, 2014
    Messages:
    2,651
    Likes Received:
    346
    Can you please also post more performances ?
     
  15. submariner9728

    submariner9728 Member

    Joined:
    Dec 26, 2014
    Messages:
    994
    Likes Received:
    22
  16. harmonizer54

    harmonizer54 Well-Known Member

    Joined:
    Jul 21, 2016
    Messages:
    344
    Likes Received:
    257
  17. Glauber

    Glauber Active Member

    Joined:
    Sep 22, 2014
    Messages:
    331
    Likes Received:
    26
    Thanks
     
  18. gleissoncoelho

    gleissoncoelho Active Member

    Joined:
    Aug 29, 2016
    Messages:
    353
    Likes Received:
    101
    thanks!!!!
     
  19. Grizzly3101

    Grizzly3101 Member

    Joined:
    Nov 30, 2016
    Messages:
    138
    Likes Received:
    12
    thanks
     
  20. aria99

    aria99 Active Member

    Joined:
    Jun 3, 2015
    Messages:
    375
    Likes Received:
    71
    whattttt
     
  21. digimaze

    digimaze Well-Known Member

    Joined:
    Feb 11, 2015
    Messages:
    1,290
    Likes Received:
    78