Britney Spears - Stronger (Upscale) 1080p

Discussion in 'UPSCALED' started by hanshermann, Jan 12, 2018.

  1. hanshermann

    hanshermann Well-Known Member Uploader

    Joined:
    Aug 24, 2016
    Messages:
    5,240
    Likes Received:
    4,941
    [​IMG]

    Britney Spears - Stronger 1080p

    Code:
    General
    Unique ID                   : 246009028279631332649856117842790590783 (0xB9139D8BDC008DC4B1560726246C293F)
    Complete name               : Britney Spears - Stronger (Master) HD 1080.mkv
    Format                      : Matroska
    Format version              : Version 4 / Version 2
    File size                   : 821 MiB
    Duration                    : 3 min 38 s
    Overall bit rate mode       : Variable
    Overall bit rate            : 31.5 Mb/s
    Encoded date                : UTC 2015-10-28 22:34:38
    Writing application         : mkvmerge v7.7.0 ('Six Voices') 64bit built on Feb 28 2015 23:39:33
    Writing library             : libebml v1.3.1 + libmatroska v1.4.2
    
    Video
    ID                          : 1
    Format                      : AVC
    Format/Info                 : Advanced Video Codec
    Format profile              : [email protected]
    Format settings, CABAC      : Yes
    Format settings, ReFrames   : 16 frames
    Codec ID                    : V_MPEG4/ISO/AVC
    Duration                    : 3 min 38 s
    Bit rate                    : 30.0 Mb/s
    Width                       : 1 920 pixels
    Height                      : 1 080 pixels
    Display aspect ratio        : 16:9
    Frame rate mode             : Constant
    Frame rate                  : 23.976 (24000/1001) FPS
    Color space                 : YUV
    Chroma subsampling          : 4:2:0
    Bit depth                   : 8 bits
    Scan type                   : Progressive
    Bits/(Pixel*Frame)          : 0.603
    Stream size                 : 782 MiB (95%)
    Writing library             : x264 core 146 r2538 121396c
    
    Default                     : Yes
    Forced                      : No
    
    Audio #1
    ID                          : 2
    Format                      : AC-3
    Format/Info                 : Audio Coding 3
    Format settings, Endianness : Big
    Codec ID                    : A_AC3
    Duration                    : 3 min 36 s
    Bit rate mode               : Constant
    Bit rate                    : 448 kb/s
    Channel(s)                  : 6 channels
    Channel positions           : Front: L C R, Side: L R, LFE
    Sampling rate               : 48.0 kHz
    Frame rate                  : 31.250 FPS (1536 spf)
    Bit depth                   : 16 bits
    Compression mode            : Lossy
    Delay relative to video     : 281 ms
    Stream size                 : 11.6 MiB (1%)
    Service kind                : Complete Main
    Default                     : Yes
    Forced                      : No
    
    Audio #2
    ID                          : 3
    Format                      : FLAC
    Format/Info                 : Free Lossless Audio Codec
    Codec ID                    : A_FLAC
    Duration                    : 3 min 36 s
    Bit rate mode               : Variable
    Bit rate                    : 1 038 kb/s
    Channel(s)                  : 2 channels
    Channel positions           : Front: L R
    Sampling rate               : 48.0 kHz
    Frame rate                  : 11.721 FPS (4095 spf)
    Bit depth                   : 16 bits
    Stream size                 : 26.8 MiB (3%)
    Writing library             : libFLAC 1.0.4 (UTC 2014-11-25)
    Default                     : No
    Forced                      : No
    
    
    Hidden Content:
    You must either reply or click 'Like' to see the hidden information contained here.
     
    ianarturis, Vinny, plwww and 2 others like this.
  2. Loading...


  3. Albertography

    Albertography Active Member

    Joined:
    Sep 6, 2016
    Messages:
    188
    Likes Received:
    33
    Thanks!
     
  4. TrendMusic

    TrendMusic Well-Known Member

    Joined:
    Oct 7, 2013
    Messages:
    1,459
    Likes Received:
    113
  5. andreamonger

    andreamonger Well-Known Member

    Joined:
    May 16, 2015
    Messages:
    1,157
    Likes Received:
    179
    thanks
     
  6. rvk8991

    rvk8991 Member

    Joined:
    Oct 24, 2017
    Messages:
    64
    Likes Received:
    2
    thank you
     
  7. mizdot

    mizdot Well-Known Member

    Joined:
    Nov 13, 2014
    Messages:
    1,971
    Likes Received:
    54
    tnx man
     
  8. multimediafm

    multimediafm Well-Known Member Donor

    Joined:
    Mar 27, 2014
    Messages:
    11,169
    Likes Received:
    676
  9. lovegungun

    lovegungun Member

    Joined:
    Dec 8, 2017
    Messages:
    77
    Likes Received:
    5
  10. mat2103

    mat2103 Member

    Joined:
    Dec 6, 2016
    Messages:
    492
    Likes Received:
    18
    Thank you :) :')
     
  11. lim

    lim Well-Known Member

    Joined:
    Nov 8, 2013
    Messages:
    1,814
    Likes Received:
    36
  12. quake2

    quake2 Well-Known Member

    Joined:
    Oct 11, 2014
    Messages:
    1,154
    Likes Received:
    75
  13. nino.navy

    nino.navy Well-Known Member

    Joined:
    May 30, 2014
    Messages:
    2,443
    Likes Received:
    99
  14. brian182

    brian182 Well-Known Member

    Joined:
    Oct 14, 2013
    Messages:
    1,879
    Likes Received:
    88
  15. Tenorio

    Tenorio New Member

    Joined:
    Monday
    Messages:
    4
    Likes Received:
    0
  16. plwww

    plwww Active Member

    Joined:
    May 28, 2016
    Messages:
    575
    Likes Received:
    34
  17. Valentina

    Valentina Member

    Joined:
    Oct 25, 2013
    Messages:
    467
    Likes Received:
    13
  18. Prizm2016Vas

    Prizm2016Vas Member

    Joined:
    Jul 9, 2016
    Messages:
    456
    Likes Received:
    12
  19. tilon

    tilon Member

    Joined:
    Oct 2, 2016
    Messages:
    214
    Likes Received:
    12
    thansksss
     
  20. sylvieyunjae

    sylvieyunjae Member

    Joined:
    Feb 29, 2016
    Messages:
    396
    Likes Received:
    13
  21. Vinny

    Vinny Well-Known Member

    Joined:
    Dec 26, 2013
    Messages:
    3,649
    Likes Received:
    34