Britney Spears - Lucky (Upscale) 1080p

Discussion in 'UPSCALED' started by hanshermann, Jan 12, 2018.

  1. hanshermann

    hanshermann Well-Known Member Uploader

    Joined:
    Aug 24, 2016
    Messages:
    5,240
    Likes Received:
    4,941
    [​IMG]

    Britney Spears - Lucky HD 1080p

    Code:
    General
    Unique ID                   : 222797446859084085635339072486844155127 (0xA79D3A39C353CE439ACCE96947A044F7)
    Complete name               : Britney Spears - Lucky HD 1080.mkv
    Format                      : Matroska
    Format version              : Version 4 / Version 2
    File size                   : 1.02 GiB
    Duration                    : 4 min 8 s
    Overall bit rate mode       : Variable
    Overall bit rate            : 35.3 Mb/s
    Encoded date                : UTC 2015-12-02 23:02:07
    Writing application         : mkvmerge v7.7.0 ('Six Voices') 64bit built on Feb 28 2015 23:39:33
    Writing library             : libebml v1.3.1 + libmatroska v1.4.2
    
    Video
    ID                          : 1
    Format                      : AVC
    Format/Info                 : Advanced Video Codec
    Format profile              : [email protected]
    Format settings, CABAC      : Yes
    Format settings, ReFrames   : 16 frames
    Codec ID                    : V_MPEG4/ISO/AVC
    Duration                    : 4 min 8 s
    Bit rate                    : 30.0 Mb/s
    Width                       : 1 920 pixels
    Height                      : 980 pixels
    Display aspect ratio        : 1.959
    Frame rate mode             : Constant
    Frame rate                  : 30.000 FPS
    Color space                 : YUV
    Chroma subsampling          : 4:2:0
    Bit depth                   : 8 bits
    Scan type                   : Progressive
    Bits/(Pixel*Frame)          : 0.531
    Stream size                 : 890 MiB (85%)
    Writing library             : x264 core 146 r2538 121396c
    
    Default                     : Yes
    Forced                      : No
    
    Audio #1
    ID                          : 2
    Format                      : FLAC
    Format/Info                 : Free Lossless Audio Codec
    Codec ID                    : A_FLAC
    Duration                    : 4 min 5 s
    Bit rate mode               : Variable
    Bit rate                    : 4 303 kb/s
    Channel(s)                  : 6 channels
    Channel positions           : Front: L C R, Side: L R, LFE
    Sampling rate               : 48.0 kHz
    Frame rate                  : 10.418 FPS (4607 spf)
    Bit depth                   : 24 bits
    Delay relative to video     : 430 ms
    Stream size                 : 126 MiB (12%)
    Writing library             : Lavf55.19.100
    Default                     : Yes
    Forced                      : No
    
    Audio #2
    ID                          : 3
    Format                      : FLAC
    Format/Info                 : Free Lossless Audio Codec
    Codec ID                    : A_FLAC
    Duration                    : 4 min 7 s
    Bit rate mode               : Variable
    Bit rate                    : 1 018 kb/s
    Channel(s)                  : 2 channels
    Channel positions           : Front: L R
    Sampling rate               : 44.1 kHz
    Frame rate                  : 10.769 FPS (4095 spf)
    Bit depth                   : 16 bits
    Stream size                 : 30.0 MiB (3%)
    Writing library             : libFLAC 1.0.4 (UTC 2014-11-25)
    Default                     : No
    Forced                      : No
    Hidden Content:
    You must either reply or click 'Like' to see the hidden information contained here.
     
    lovegungun, eks22 and Trop1cal like this.
  2. Loading...


  3. nastybutf4ncy

    nastybutf4ncy Active Member

    Joined:
    Jun 25, 2017
    Messages:
    882
    Likes Received:
    220
    Can you please upscale Avril Lavigne - Losing Grip? :)
     
  4. Albertography

    Albertography Active Member

    Joined:
    Sep 6, 2016
    Messages:
    188
    Likes Received:
    33
    Thanks!
     
  5. andreamonger

    andreamonger Well-Known Member

    Joined:
    May 16, 2015
    Messages:
    1,157
    Likes Received:
    179
    thanks
     
  6. mizdot

    mizdot Well-Known Member

    Joined:
    Nov 13, 2014
    Messages:
    1,971
    Likes Received:
    54
    tnx man
     
  7. multimediafm

    multimediafm Well-Known Member Donor

    Joined:
    Mar 27, 2014
    Messages:
    11,169
    Likes Received:
    676
  8. lovegungun

    lovegungun Member

    Joined:
    Dec 8, 2017
    Messages:
    77
    Likes Received:
    5
  9. quake2

    quake2 Well-Known Member

    Joined:
    Oct 11, 2014
    Messages:
    1,154
    Likes Received:
    75
  10. Valentina

    Valentina Member

    Joined:
    Oct 25, 2013
    Messages:
    467
    Likes Received:
    13
  11. Vinny

    Vinny Well-Known Member

    Joined:
    Dec 26, 2013
    Messages:
    3,649
    Likes Received:
    34