Bridgit Mendler - How To Believe 1080p Blu-ray DD5.1 AVC-TrollHD

Discussion in 'BLU-RAY & BD RIP' started by rgf72k, Oct 22, 2013.

  1. rgf72k

    rgf72k Founder Staff Member AdMiN Capper Uploader

    Joined:
    Oct 1, 2013
    Messages:
    1,140
    Likes Received:
    16,809
    [​IMG]

    Code:
          Complete name : Bridgit Mendler - How To Believe 1080p Blu-ray DD5.1 AVC-TrollHD.m2ts
          Format : BDAV
          Format/Info : Blu-ray Video
          File size : 355 MiB
          Duration : 3mn 2s
          Overall bit rate mode : Variable
          Overall bit rate : 16.3 Mbps
          Maximum Overall bit rate : 48.0 Mbps
      Video #4113
          ID : 4113 (0x1011)
          Menu ID : 1 (0x1)
          Format : AVC
          Format/Info : Advanced Video Codec
          Format profile : [email protected]
          Format settings, CABAC : Yes
          Format settings, ReFrames : 4 frames
          Codec ID : 27
          Duration : 3mn 2s
          Bit rate mode : Variable
          Bit rate : 15.2 Mbps
          Maximum bit rate : 20.0 Mbps
          Width : 1 920 pixels
          Height : 1 080 pixels
          Display aspect ratio : 16:9
          Frame rate : 23.976 fps
          Standard : NTSC
          Color space : YUV
          Chroma subsampling : 4:2:0
          Bit depth : 8 bits
          Scan type : Progressive
          Bits/(Pixel*Frame) : 0.305
          Stream size : 329 MiB (93%)
          Color primaries : BT.709
          Transfer characteristics : BT.709
          Matrix coefficients : BT.709
      Audio #4352
          ID : 4352 (0x1100)
          Menu ID : 1 (0x1)
          Format : AC-3
          Format/Info : Audio Coding 3
          Mode extension : CM (complete main)
          Format settings, Endianness : Big
          Codec ID : 129
          Duration : 3mn 2s
          Bit rate mode : Constant
          Bit rate : 448 Kbps
          Channel(s) : 6 channels
          Channel positions : Front: L C R, Side: L R, LFE
          Sampling rate : 48.0 KHz
          Bit depth : 16 bits
          Compression mode : Lossy
          Stream size : 9.73 MiB (3%)

    Download:
    Hidden Content:
    You must either reply or click 'Like' to see the hidden information contained here.


    Password: sharemania.net


    Capper: TrollHD
     
  2. Loading...


  3. rhea

    rhea Well-Known Member

    Joined:
    Jan 6, 2014
    Messages:
    7,095
    Likes Received:
    781
    thank you :)
     
  4. ryualviss

    ryualviss Active Member

    Joined:
    Jan 6, 2014
    Messages:
    151
    Likes Received:
    560
    nice video, thanks.
     
  5. multimediafm

    multimediafm Well-Known Member Donor

    Joined:
    Mar 27, 2014
    Messages:
    11,053
    Likes Received:
    659
    Thanks :)
    Bridgit Mendler - How To Believe 1080p Blu-ray DD5.1 AVC-TrollHD
     
  6. hemunshu

    hemunshu Member

    Joined:
    Feb 12, 2016
    Messages:
    112
    Likes Received:
    1
    thanks
     
  7. Pavulon

    Pavulon Well-Known Member

    Joined:
    Mar 22, 2016
    Messages:
    3,808
    Likes Received:
    489
    thanks
     
  8. 3veronicas

    3veronicas Well-Known Member

    Joined:
    Aug 26, 2016
    Messages:
    1,399
    Likes Received:
    63
    Thanks!
     
  9. Guilhermejpc

    Guilhermejpc Member

    Joined:
    Oct 27, 2016
    Messages:
    289
    Likes Received:
    2
  10. guanche1985

    guanche1985 Active Member

    Joined:
    Nov 23, 2016
    Messages:
    539
    Likes Received:
    46
  11. el_inigualable

    el_inigualable Member

    Joined:
    Dec 25, 2016
    Messages:
    265
    Likes Received:
    7
  12. valtersc

    valtersc Active Member

    Joined:
    Nov 19, 2014
    Messages:
    262
    Likes Received:
    199
  13. mjjmusic

    mjjmusic Member

    Joined:
    Feb 4, 2017
    Messages:
    119
    Likes Received:
    2
  14. klodrik

    klodrik Member

    Joined:
    May 29, 2017
    Messages:
    699
    Likes Received:
    16
    Thanks
     
  15. slill

    slill Active Member

    Joined:
    Jul 25, 2014
    Messages:
    1,097
    Likes Received:
    16
    thanks
     
  16. bbb777

    bbb777 Member

    Joined:
    Mar 2, 2016
    Messages:
    111
    Likes Received:
    2
  17. bbb777

    bbb777 Member

    Joined:
    Mar 2, 2016
    Messages:
    111
    Likes Received:
    2