HDTV Beyonce - Rock in Rio - RJ - Brazil - 2013-09-13 - 1080i HDTV

Discussion in 'HD Live Performances' started by hanshermann, Nov 29, 2017.

  1. hanshermann

    hanshermann Well-Known Member Uploader

    Joined:
    Aug 24, 2016
    Messages:
    5,222
    Likes Received:
    4,819
    [​IMG]

    Beyonce - Rock in Rio - RJ - Brazil - 2013-09-13 - 1080i HDTV

    Code:
    General
    ID                          : 0 (0x0)
    Complete name               : Beyonce  - Rock in Rio - RJ - Brazil - 2013-09-13  - 1080i HDTV.ts
    Format                      : MPEG-TS
    File size                   : 6.98 GiB
    Duration                    : 1 h 29 min
    Overall bit rate mode       : Variable
    Overall bit rate            : 11.2 Mb/s
    
    Video
    ID                          : 512 (0x200)
    Menu ID                     : 1 (0x1)
    Format                      : AVC
    Format/Info                 : Advanced Video Codec
    Format profile              : [email protected]
    Format settings, CABAC      : Yes
    Format settings, ReFrames   : 4 frames
    Format settings, GOP        : M=4, N=32
    Codec ID                    : 27
    Duration                    : 1 h 29 min
    Bit rate mode               : Variable
    Bit rate                    : 9 852 kb/s
    Maximum bit rate            : 20.0 Mb/s
    Width                       : 1 920 pixels
    Height                      : 1 080 pixels
    Display aspect ratio        : 16:9
    Frame rate                  : 29.970 (30000/1001) FPS
    Standard                    : Component
    Color space                 : YUV
    Chroma subsampling          : 4:2:0
    Bit depth                   : 8 bits
    Scan type                   : Interlaced
    Scan type, store method     : Separated fields
    Scan order                  : Top Field First
    Bits/(Pixel*Frame)          : 0.159
    Stream size                 : 6.15 GiB (88%)
    Color range                 : Limited
    Color primaries             : BT.709
    Transfer characteristics    : BT.709
    Matrix coefficients         : BT.709
    
    Audio #1
    ID                          : 513 (0x201)
    Menu ID                     : 1 (0x1)
    Format                      : AC-3
    Format/Info                 : Audio Coding 3
    Format settings, Endianness : Big
    Codec ID                    : 129
    Duration                    : 1 h 29 min
    Bit rate mode               : Constant
    Bit rate                    : 384 kb/s
    Channel(s)                  : 6 channels
    Channel positions           : Front: L C R, Side: L R, LFE
    Sampling rate               : 48.0 kHz
    Frame rate                  : 31.250 FPS (1536 spf)
    Bit depth                   : 16 bits
    Compression mode            : Lossy
    Stream size                 : 245 MiB (3%)
    Service kind                : Complete Main
    
    Audio #2
    ID                          : 514 (0x202)
    Menu ID                     : 1 (0x1)
    Format                      : AC-3
    Format/Info                 : Audio Coding 3
    Format settings, Endianness : Big
    Codec ID                    : 129
    Duration                    : 1 h 29 min
    Bit rate mode               : Constant
    Bit rate                    : 384 kb/s
    Channel(s)                  : 6 channels
    Channel positions           : Front: L C R, Side: L R, LFE
    Sampling rate               : 48.0 kHz
    Frame rate                  : 31.250 FPS (1536 spf)
    Bit depth                   : 16 bits
    Compression mode            : Lossy
    Stream size                 : 245 MiB (3%)
    Service kind                : Complete Main
    Hidden Content:
    You must either reply or click 'Like' to see the hidden information contained here.
     
  2. Loading...


  3. detroit1

    detroit1 Well-Known Member

    Joined:
    Jan 6, 2014
    Messages:
    2,651
    Likes Received:
    346
    thank you
     
  4. qweeenbey

    qweeenbey Member

    Joined:
    Sep 30, 2017
    Messages:
    269
    Likes Received:
    8
    thanks
     
  5. Grizzly3101

    Grizzly3101 Member

    Joined:
    Nov 30, 2016
    Messages:
    138
    Likes Received:
    12
    thanks
     
  6. frisby

    frisby Well-Known Member

    Joined:
    Nov 21, 2015
    Messages:
    1,190
    Likes Received:
    123
    thank you
     
  7. Cjdavis83

    Cjdavis83 New Member

    Joined:
    Jul 28, 2017
    Messages:
    6
    Likes Received:
    0
  8. abangnyasiadek

    abangnyasiadek Member

    Joined:
    Nov 13, 2016
    Messages:
    47
    Likes Received:
    4
  9. Pedro Correia

    Pedro Correia Well-Known Member

    Joined:
    Apr 17, 2014
    Messages:
    1,056
    Likes Received:
    113
  10. nickgoldsmit

    nickgoldsmit B-Army

    Joined:
    May 3, 2016
    Messages:
    115
    Likes Received:
    7
  11. juliolalaland

    juliolalaland Member

    Joined:
    Dec 25, 2016
    Messages:
    297
    Likes Received:
    14
  12. jcabreg

    jcabreg Member

    Joined:
    Sep 29, 2017
    Messages:
    49
    Likes Received:
    1
    OMG THANK YOU
     
  13. pablo

    pablo New Member

    Joined:
    Jul 12, 2014
    Messages:
    20
    Likes Received:
    0
    Thanks
     
  14. igetcrazy98

    igetcrazy98 Member

    Joined:
    Oct 17, 2016
    Messages:
    36
    Likes Received:
    2
    thank you
     
  15. apl3

    apl3 Active Member

    Joined:
    Jun 11, 2017
    Messages:
    692
    Likes Received:
    25
    thanks
     
  16. kaleidoseba

    kaleidoseba New Member

    Joined:
    Sep 27, 2015
    Messages:
    27
    Likes Received:
    1
  17. Raphael Herculano

    Raphael Herculano Member

    Joined:
    Sep 11, 2014
    Messages:
    120
    Likes Received:
    4
  18. brenoallex

    brenoallex Member

    Joined:
    Sep 4, 2016
    Messages:
    298
    Likes Received:
    23
    thanks
     
  19. IWNLYD

    IWNLYD Member

    Joined:
    Feb 28, 2017
    Messages:
    196
    Likes Received:
    1
    Thanks!
     
  20. blimaramao

    blimaramao Member

    Joined:
    Sep 30, 2016
    Messages:
    71
    Likes Received:
    3
    thanks

     
  21. nino.navy

    nino.navy Well-Known Member

    Joined:
    May 30, 2014
    Messages:
    2,433
    Likes Received:
    97
    thanks a lot