HDTV Beyoncé - Sweet Dreams + Single Ladies (MTV VMA 2003) 720p

Discussion in 'HD Live Performances' started by hanshermann, Nov 15, 2017.

  1. cacgv

    cacgv Member

    Joined:
    Nov 22, 2017
    Messages:
    87
    Likes Received:
    0
    tahnsk
     
  2. educsarferreira

    educsarferreira Member

    Joined:
    Sep 3, 2016
    Messages:
    91
    Likes Received:
    11
  3. mariahpam

    mariahpam Member

    Joined:
    Dec 3, 2017
    Messages:
    203
    Likes Received:
    3
    thanks[​IMG]

    Beyoncé - Sweet Dreams + Single Ladies (MTV VMA 2003) 720p

    Code:
    General
    Complete name               : Beyoncé - Sweet Dreams + Single Ladies (MTV VMA 2003) 720p\beyonce mtv_2009.avi
    Format                      : AVI
    Format/Info                 : Audio Video Interleave
    File size                   : 194 MiB
    Duration                    : 5 min 10 s
    Overall bit rate            : 5 237 kb/s
    Director                    : created.with.SUPER(C).v2009.bld.36
    Writing application         : SUPER(C) - by eRightSoft
    
    Video
    ID                          : 0
    Format                      : MPEG-4 Visual
    Format profile              : [email protected]
    Format settings, BVOP       : No
    Format settings, QPel       : No
    Format settings, GMC        : No warppoints
    Format settings, Matrix     : Default (H.263)
    Codec ID                    : DIVX
    Codec ID/Info               : Project Mayo
    Codec ID/Hint               : DivX 4
    Duration                    : 5 min 10 s
    Bit rate                    : 5 032 kb/s
    Width                       : 1 280 pixels
    Height                      : 720 pixels
    Display aspect ratio        : 16:9
    Frame rate                  : 29.970 (30000/1001) FPS
    Color space                 : YUV
    Chroma subsampling          : 4:2:0
    Bit depth                   : 8 bits
    Scan type                   : Progressive
    Compression mode            : Lossy
    Bits/(Pixel*Frame)          : 0.182
    Stream size                 : 186 MiB (96%)
    Writing library             : SUPER(C)  
    
    Audio
    ID                          : 1
    Format                      : MPEG Audio
    Format version              : Version 1
    Format profile              : Layer 3
    Codec ID                    : 55
    Codec ID/Hint               : MP3
    Duration                    : 5 min 9 s
    Bit rate mode               : Constant
    Bit rate                    : 192 kb/s
    Channel(s)                  : 2 channels
    Sampling rate               : 48.0 kHz
    Compression mode            : Lossy
    Stream size                 : 7.08 MiB (4%)
    Alignment                   : Aligned on interleaves
    Interleave, duration        : 24  ms (0.72 video frame)
    Interleave, preload duratio : 504  ms
    
    ***Hidden content cannot be quoted.***[/QUOTE]
     
  4. Anjolicious

    Anjolicious Active Member

    Joined:
    Jun 17, 2015
    Messages:
    528
    Likes Received:
    198
  5. ARTI

    ARTI Yonce

    Joined:
    May 21, 2017
    Messages:
    237
    Likes Received:
    1
    thanks
     
  6. juliolalaland

    juliolalaland Member

    Joined:
    Dec 25, 2016
    Messages:
    297
    Likes Received:
    14
    Gracias!!!
     
  7. DON KING

    DON KING Active Member

    Joined:
    Dec 13, 2016
    Messages:
    466
    Likes Received:
    26
    Hidden Content:
    You must reply before you can see the hidden data contained here.
     
  8. frostyheaven

    frostyheaven Member

    Joined:
    Jun 17, 2016
    Messages:
    119
    Likes Received:
    5
  9. gleissoncoelho

    gleissoncoelho Active Member

    Joined:
    Aug 29, 2016
    Messages:
    353
    Likes Received:
    101
    thanks!!!
     
  10. akron

    akron New Member

    Joined:
    Sep 20, 2017
    Messages:
    4
    Likes Received:
    0
    thanks =)
     
  11. Wilson Sores

    Wilson Sores Member

    Joined:
    Jun 22, 2015
    Messages:
    370
    Likes Received:
    18
  12. John

    John Member

    Joined:
    Oct 30, 2013
    Messages:
    481
    Likes Received:
    4
    Thanks
     
  13. biglovejoy

    biglovejoy Member

    Joined:
    Wednesday
    Messages:
    44
    Likes Received:
    0
  14. Yoncevsfierce69

    Yoncevsfierce69 Member

    Joined:
    Oct 19, 2016
    Messages:
    61
    Likes Received:
    0
    yeaaaaaaaaaaaaaaaaaaaaaaaaaaayh
     
  15. lugurod

    lugurod Member

    Joined:
    Oct 4, 2014
    Messages:
    136
    Likes Received:
    8