HDTV Beyoncé - Sweet Dreams + Single Ladies (MTV VMA 2003) 720p

Discussion in 'HD Live Performances' started by hanshermann, Nov 15, 2017.

  1. hanshermann

    hanshermann Well-Known Member Uploader

    Joined:
    Aug 24, 2016
    Messages:
    5,222
    Likes Received:
    4,820
    [​IMG]

    Beyoncé - Sweet Dreams + Single Ladies (MTV VMA 2003) 720p

    Code:
    General
    Complete name               : Beyoncé - Sweet Dreams + Single Ladies (MTV VMA 2003) 720p\beyonce mtv_2009.avi
    Format                      : AVI
    Format/Info                 : Audio Video Interleave
    File size                   : 194 MiB
    Duration                    : 5 min 10 s
    Overall bit rate            : 5 237 kb/s
    Director                    : created.with.SUPER(C).v2009.bld.36
    Writing application         : SUPER(C) - by eRightSoft
    
    Video
    ID                          : 0
    Format                      : MPEG-4 Visual
    Format profile              : [email protected]
    Format settings, BVOP       : No
    Format settings, QPel       : No
    Format settings, GMC        : No warppoints
    Format settings, Matrix     : Default (H.263)
    Codec ID                    : DIVX
    Codec ID/Info               : Project Mayo
    Codec ID/Hint               : DivX 4
    Duration                    : 5 min 10 s
    Bit rate                    : 5 032 kb/s
    Width                       : 1 280 pixels
    Height                      : 720 pixels
    Display aspect ratio        : 16:9
    Frame rate                  : 29.970 (30000/1001) FPS
    Color space                 : YUV
    Chroma subsampling          : 4:2:0
    Bit depth                   : 8 bits
    Scan type                   : Progressive
    Compression mode            : Lossy
    Bits/(Pixel*Frame)          : 0.182
    Stream size                 : 186 MiB (96%)
    Writing library             : SUPER(C)   
    
    Audio
    ID                          : 1
    Format                      : MPEG Audio
    Format version              : Version 1
    Format profile              : Layer 3
    Codec ID                    : 55
    Codec ID/Hint               : MP3
    Duration                    : 5 min 9 s
    Bit rate mode               : Constant
    Bit rate                    : 192 kb/s
    Channel(s)                  : 2 channels
    Sampling rate               : 48.0 kHz
    Compression mode            : Lossy
    Stream size                 : 7.08 MiB (4%)
    Alignment                   : Aligned on interleaves
    Interleave, duration        : 24  ms (0.72 video frame)
    Interleave, preload duratio : 504  ms
    
    Hidden Content:
    You must either reply or click 'Like' to see the hidden information contained here.
     
  2. Loading...


  3. theyak

    theyak Member

    Joined:
    Dec 15, 2013
    Messages:
    106
    Likes Received:
    7
    thanks
     
  4. Pavulon

    Pavulon Well-Known Member

    Joined:
    Mar 22, 2016
    Messages:
    3,808
    Likes Received:
    489
    thank you
     
  5. cranman

    cranman Member

    Joined:
    Feb 22, 2017
    Messages:
    191
    Likes Received:
    3
    thanks
     
  6. ukhousemafia

    ukhousemafia Member

    Joined:
    Dec 18, 2015
    Messages:
    169
    Likes Received:
    7
  7. hungquocphan

    hungquocphan Active Member

    Joined:
    Nov 1, 2013
    Messages:
    637
    Likes Received:
    33
  8. brian182

    brian182 Well-Known Member

    Joined:
    Oct 14, 2013
    Messages:
    1,876
    Likes Received:
    88
    thankss
     
  9. brunolima284

    brunolima284 Member

    Joined:
    May 13, 2017
    Messages:
    278
    Likes Received:
    11
  10. apl3

    apl3 Active Member

    Joined:
    Jun 11, 2017
    Messages:
    692
    Likes Received:
    25
    thanks
     
  11. multimediafm

    multimediafm Well-Known Member Donor

    Joined:
    Mar 27, 2014
    Messages:
    11,056
    Likes Received:
    659
  12. Vinny

    Vinny Well-Known Member

    Joined:
    Dec 26, 2013
    Messages:
    3,617
    Likes Received:
    30
    Thanks! ;-D
     
  13. Alisson Andrade

    Alisson Andrade Member

    Joined:
    Jan 27, 2017
    Messages:
    207
    Likes Received:
    6
    thanks
     
  14. kweenbey

    kweenbey Active Member

    Joined:
    Sep 20, 2016
    Messages:
    337
    Likes Received:
    129
  15. eldomi13

    eldomi13 Member

    Joined:
    Jun 26, 2017
    Messages:
    117
    Likes Received:
    18
    Gracias :)
     
  16. Mine Motivated

    Mine Motivated Member

    Joined:
    Oct 23, 2016
    Messages:
    84
    Likes Received:
    11
  17. IWNLYD

    IWNLYD Member

    Joined:
    Feb 28, 2017
    Messages:
    196
    Likes Received:
    1
    Thanks!
     
  18. mizdot

    mizdot Well-Known Member

    Joined:
    Nov 13, 2014
    Messages:
    1,969
    Likes Received:
    54
    tnx man
     
  19. 010juninho

    010juninho Active Member

    Joined:
    Jan 16, 2016
    Messages:
    768
    Likes Received:
    26
  20. philipecamp

    philipecamp Member

    Joined:
    Sep 5, 2016
    Messages:
    203
    Likes Received:
    10
    thank you
     
  21. jose luis

    jose luis Member

    Joined:
    Nov 25, 2013
    Messages:
    300
    Likes Received:
    15
    thanks !