Beyoncé - Freakum Dress 1080p

Discussion in 'Music Videos' started by hanshermann, Jan 8, 2018.

  1. hanshermann

    hanshermann Well-Known Member Uploader

    Joined:
    Aug 24, 2016
    Messages:
    5,240
    Likes Received:
    4,919
    [​IMG]

    Beyoncé - Freakum Dress 1080p

    Code:
    General
    Unique ID                   : 250106701211816864300153721823062255322 (0xBC28CC6B8447BE2DB04221602F09E6DA)
    Complete name               : Beyoncé - Freakum Dress.mkv
    Format                      : Matroska
    Format version              : Version 4 / Version 2
    File size                   : 738 MiB
    Duration                    : 3 min 16 s
    Overall bit rate mode       : Variable
    Overall bit rate            : 31.5 Mb/s
    Encoded date                : UTC 2017-09-15 21:25:19
    Writing application         : mkvmerge v7.7.0 ('Six Voices') 64bit built on Feb 28 2015 23:39:33
    Writing library             : libebml v1.3.1 + libmatroska v1.4.2
    
    Video
    ID                          : 1
    Format                      : AVC
    Format/Info                 : Advanced Video Codec
    Format profile              : [email protected]
    Format settings, CABAC      : Yes
    Format settings, ReFrames   : 4 frames
    Codec ID                    : V_MPEG4/ISO/AVC
    Duration                    : 3 min 16 s
    Bit rate mode               : Variable
    Bit rate                    : 30.0 Mb/s
    Maximum bit rate            : 40.0 Mb/s
    Width                       : 1 920 pixels
    Height                      : 1 048 pixels
    Display aspect ratio        : 1.85:1
    Frame rate mode             : Constant
    Frame rate                  : 29.970 (30000/1001) FPS
    Color space                 : YUV
    Chroma subsampling          : 4:2:0
    Bit depth                   : 8 bits
    Scan type                   : Progressive
    Bits/(Pixel*Frame)          : 0.497
    Stream size                 : 702 MiB (95%)
    Default                     : Yes
    Forced                      : No
    
    Audio
    ID                          : 2
    Format                      : PCM
    Format settings, Endianness : Big
    Codec ID                    : A_PCM/INT/BIG
    Duration                    : 3 min 16 s
    Bit rate mode               : Constant
    Bit rate                    : 1 536 kb/s
    Channel(s)                  : 2 channels
    Sampling rate               : 48.0 kHz
    Frame rate                  : 32.000 FPS (1500 spf)
    Bit depth                   : 16 bits
    Delay relative to video     : 126 ms
    Stream size                 : 35.9 MiB (5%)
    Default                     : Yes
    Forced                      : No
    Hidden Content:
    You must either reply or click 'Like' to see the hidden information contained here.
     
    Last edited: Jan 8, 2018
    toonbbv, Albert90 and Djodjara like this.
  2. Loading...


  3. Djodjara

    Djodjara Gwen Fan Capper

    Joined:
    Sep 6, 2014
    Messages:
    860
    Likes Received:
    1,563
    Wow, thanks, let me check this!
     
  4. marcovieirabh

    marcovieirabh Member

    Joined:
    May 22, 2017
    Messages:
    724
    Likes Received:
    23
    thanks
     
  5. masterofcum69

    masterofcum69 New Member

    Joined:
    Oct 2, 2017
    Messages:
    24
    Likes Received:
    0
  6. andreamonger

    andreamonger Well-Known Member

    Joined:
    May 16, 2015
    Messages:
    1,157
    Likes Received:
    179
    tanks
     
  7. popstar1

    popstar1 Member

    Joined:
    Jul 1, 2017
    Messages:
    122
    Likes Received:
    1
    thanks
     
  8. Nicolas Martins

    Nicolas Martins st jude

    Joined:
    Sep 22, 2014
    Messages:
    994
    Likes Received:
    111
  9. Tommyboy

    Tommyboy Active Member

    Joined:
    Oct 23, 2016
    Messages:
    782
    Likes Received:
    29
    G.Tanks
     
  10. toonbbv

    toonbbv Well-Known Member

    Joined:
    Dec 11, 2013
    Messages:
    1,691
    Likes Received:
    81