August Alsina ft. Nicki Minaj - No Love (Trace HD-1080i)-Olgold

Discussion in 'TRACE URBAN HD' started by Olgold, Aug 25, 2015.

  1. Olgold

    Olgold Well-Known Member Capper

    Joined:
    Aug 19, 2015
    Messages:
    436
    Likes Received:
    1,721
    [​IMG]
    General
    Format : MPEG-TS
    File size : 240 MiB
    Duration : 4mn 32s
    Overall bit rate mode : Variable
    Overall bit rate : 7 399 Kbps

    Video
    Format : AVC
    Format/Info : Advanced Video Codec
    Format profile : [email protected]
    Format settings, CABAC : Yes
    Format settings, ReFrames : 4 frames
    Duration : 4mn 32s
    Bit rate : 6 840 Kbps
    Width : 1 920 pixels
    Height : 1 080 pixels
    Display aspect ratio : 16:9
    Frame rate : 25.000 fps
    Standard : Component
    Color space : YUV
    Chroma subsampling : 4:2:0
    Bit depth : 8 bits
    Scan type : Interlaced
    Scan order : Top Field First
    Bits/(Pixel*Frame) : 0.132
    Stream size : 222 MiB (92%)
    Color range : Limited

    Audio
    Format : MPEG Audio
    Format version : Version 1
    Format profile : Layer 2
    Duration : 4mn 32s
    Bit rate mode : Constant
    Bit rate : 192 Kbps
    Channel(s) : 2 channels
    Sampling rate : 48.0 KHz
    Compression mode : Lossy
    Delay relative to video : 10ms
    Stream size : 6.23 MiB (3%)
    Language : English
    Language, more info : Clean effects

    Hidden Content:
    You must reply before you can see the hidden data contained here.
     
  2. rhea

    rhea Well-Known Member

    Joined:
    Jan 6, 2014
    Messages:
    7,111
    Likes Received:
    788
    thank you so much :)
     
  3. Crusha

    Crusha Well-Known Member Capper V . I . P.

    Joined:
    Oct 15, 2014
    Messages:
    2,358
    Likes Received:
    2,672
    thank you
     
  4. tf135

    tf135 Well-Known Member

    Joined:
    Nov 14, 2014
    Messages:
    2,566
    Likes Received:
    166
    thank you
     
  5. limonato

    limonato Member

    Joined:
    Dec 1, 2014
    Messages:
    206
    Likes Received:
    4
    thank you
     
  6. nickiexclusive

    nickiexclusive Video Maniac V . I . P. Uploader

    Joined:
    Sep 23, 2014
    Messages:
    2,411
    Likes Received:
    10,643
    thank you
     
  7. Pavulon

    Pavulon Well-Known Member

    Joined:
    Mar 22, 2016
    Messages:
    3,808
    Likes Received:
    490
    thanks
     
  8. TheGifted

    TheGifted Member

    Joined:
    Jul 17, 2015
    Messages:
    169
    Likes Received:
    3
    Thanks
     
  9. brownbradpitt613

    brownbradpitt613 Member

    Joined:
    Sep 3, 2017
    Messages:
    636
    Likes Received:
    9
    thanks
     
  10. Tommyboy

    Tommyboy Active Member

    Joined:
    Oct 23, 2016
    Messages:
    782
    Likes Received:
    29
    G.Tanks