Ariana Grande & The Weeknd - Love Me Harder (MTVGermany-1080i-DD2.0)-Olgold

Discussion in 'MTV HD' started by Olgold, Aug 25, 2015.

  1. Olgold

    Olgold Well-Known Member Capper

    Joined:
    Aug 19, 2015
    Messages:
    436
    Likes Received:
    1,721
    [​IMG]
    General
    Format : MPEG-TS
    File size : 130 MiB
    Duration : 3mn 47s
    Overall bit rate mode : Variable
    Overall bit rate : 4 805 Kbps

    Video
    Format : AVC
    Format/Info : Advanced Video Codec
    Format profile : [email protected]
    Format settings, CABAC : Yes
    Format settings, ReFrames : 3 frames
    Duration : 3mn 47s
    Bit rate : 4 373 Kbps
    Width : 1 440 pixels
    Height : 1 080 pixels
    Display aspect ratio : 16:9
    Frame rate : 25.000 fps
    Standard : Component
    Color space : YUV
    Chroma subsampling : 4:2:0
    Bit depth : 8 bits
    Scan type : Interlaced
    Scan order : Top Field First
    Bits/(Pixel*Frame) : 0.112
    Stream size : 119 MiB (91%)
    Color range : Limited

    Audio
    Format : AC-3
    Format/Info : Audio Coding 3
    Mode extension : HI (hearing impaired)
    Format settings, Endianness : Big
    Duration : 3mn 47s
    Bit rate mode : Constant
    Bit rate : 192 Kbps
    Channel(s) : 2 channels
    Channel positions : Front: L R
    Sampling rate : 48.0 KHz
    Compression mode : Lossy
    Delay relative to video : 14ms
    Stream size : 5.21 MiB (4%)
    Language : German
    Language, more info : Clean effects

    Hidden Content:
    You must reply before you can see the hidden data contained here.
     
  2. Loading...


  3. 777josem

    777josem ProRes 1080p LPCM V . I . P.

    Joined:
    Sep 1, 2014
    Messages:
    3,737
    Likes Received:
    3,043
    Thank you so much!
     
  4. Ank-hell

    Ank-hell nɪhɪl V . I . P.

    Joined:
    Dec 21, 2013
    Messages:
    1,488
    Likes Received:
    6,195
    V Tkhs
     
  5. jayananda

    jayananda Active Member

    Joined:
    Jan 14, 2015
    Messages:
    602
    Likes Received:
    191
    Thank You
     
  6. Hyrus

    Hyrus Arianator / Selenator / Victorian / Saxobeat / LBS Donor

    Joined:
    Feb 9, 2015
    Messages:
    1,362
    Likes Received:
    1,115
    Thanks for Ariana :)
     
  7. rhea

    rhea Well-Known Member

    Joined:
    Jan 6, 2014
    Messages:
    7,146
    Likes Received:
    795
    thank you so much :)
     
  8. ytyh

    ytyh Member

    Joined:
    Mar 30, 2014
    Messages:
    432
    Likes Received:
    4
    Thank you
     
  9. Dreamer

    Dreamer Lana Del Rey ♥ Halsey Capper V . I . P. Uploader

    Joined:
    Dec 4, 2014
    Messages:
    2,905
    Likes Received:
    4,596
    Thank you so much! :)
     
  10. Attention

    Attention Active Member

    Joined:
    Nov 30, 2013
    Messages:
    562
    Likes Received:
    32
    Thank You !!!
     
  11. ivko02

    ivko02 Member

    Joined:
    Jun 20, 2016
    Messages:
    151
    Likes Received:
    2
    thanks
     
  12. maurohachen

    maurohachen Active Member

    Joined:
    Feb 24, 2015
    Messages:
    469
    Likes Received:
    25
    i love you!
     
  13. Reeko90

    Reeko90 New Member

    Joined:
    Aug 12, 2016
    Messages:
    18
    Likes Received:
    2
    thanks
     
  14. hanshermann

    hanshermann Well-Known Member Uploader

    Joined:
    Aug 24, 2016
    Messages:
    5,240
    Likes Received:
    4,919
    wahts taht
     
  15. rcj

    rcj Member

    Joined:
    May 11, 2016
    Messages:
    477
    Likes Received:
    17
    Thank u!
     
  16. VIVAfan1991

    VIVAfan1991 Active Member

    Joined:
    Jan 11, 2018
    Messages:
    175
    Likes Received:
    28