HDTV Anitta - Festival de Verão 17-Dec-2017 MULTISHOWHD 720p HDTV DD2.0 x264-REALITYKINGS

Discussion in 'HD Live Performances' started by CELOBRAZiL, Jan 13, 2018 at 3:55 PM.

  1. CELOBRAZiL

    CELOBRAZiL Well-Known Member Capper V . I . P. Donor

    Joined:
    Oct 2, 2013
    Messages:
    4,217
    Likes Received:
    13,307
    Anitta - Festival de Verão 17-Dec-2017 MULTISHOWHD 720p HDTV DD2.0 x264-REALITYKINGS

    [​IMG]



    Format : Matroska
    Format version : Version 4 / Version 2
    File size : 3.53 GiB
    Duration : 1h 0mn
    Overall bit rate : 8 290 Kbps
    Movie name : REALITYKINGS ™ - O Zica dos Releases
    Encoded date : UTC 2017-12-18 15:33:09
    Writing application : mkvmerge v15.0.0 ('Duel with the Devil') 64-bit
    Writing library : libebml v1.3.5 + libmatroska v1.4.5
    DURATION : 01:00:57.954000000
    NUMBER_OF_FRAMES : 109629
    NUMBER_OF_BYTES : 3701471449
    _STATISTICS_WRITING_APP : mkvmerge v15.0.0 ('Duel with the Devil') 64-bit
    _STATISTICS_WRITING_DATE_UTC : 2017-12-18 15:33:09
    _STATISTICS_TAGS : BPS DURATION NUMBER_OF_FRAMES NUMBER_OF_BYTES

    Video
    ID : 1
    Format : AVC
    Format/Info : Advanced Video Codec
    Format profile : [email protected]
    Format settings, CABAC : Yes
    Format settings, ReFrames : 5 frames
    Codec ID : V_MPEG4/ISO/AVC
    Duration : 1h 0mn
    Bit rate : 7 933 Kbps
    Width : 1 280 pixels
    Height : 720 pixels
    Display aspect ratio : 16:9
    Frame rate mode : Constant
    Frame rate : 29.970 fps
    Original frame rate : 30.303 fps
    Color space : YUV
    Chroma subsampling : 4:2:0
    Bit depth : 8 bits
    Scan type : Progressive
    Bits/(Pixel*Frame) : 0.287
    Stream size : 3.38 GiB (96%)
    Title : Festival.de.Verao.2017.D2.Anitta.720p.HDTV.X264-RK
    Writing library : x264 core 148 r2762 90a61ec
    Encoding settings : cabac=1 / ref=5 / deblock=1:0:0 / analyse=0x3:0x113 / me=umh / subme=8 / psy=1 / psy_rd=1.00:0.00 / mixed_ref=1 / me_range=16 / chroma_me=1 / trellis=1 / 8x8dct=1 / cqm=0 / deadzone=21,11 / fast_pskip=1 / chroma_qp_offset=-4 / threads=6 / lookahead_threads=1 / sliced_threads=0 / nr=0 / decimate=1 / interlaced=0 / bluray_compat=0 / stitchable=1 / constrained_intra=0 / bframes=5 / b_pyramid=2 / b_adapt=2 / b_bias=0 / direct=3 / weightb=1 / open_gop=0 / weightp=2 / keyint=300 / keyint_min=30 / scenecut=40 / intra_refresh=0 / rc_lookahead=50 / rc=crf / mbtree=1 / crf=19.0 / qcomp=0.60 / qpmin=0 / qpmax=69 / qpstep=4 / vbv_maxrate=62500 / vbv_bufsize=78125 / crf_max=0.0 / nal_hrd=none / filler=0 / ip_ratio=1.40 / aq=1:1.00
    Language : Portuguese
    Default : Yes
    Forced : No
    Color range : Limited
    Color primaries : BT.709
    Transfer characteristics : BT.709
    Matrix coefficients : BT.601

    Audio
    ID : 2
    Format : AC-3
    Format/Info : Audio Coding 3
    Mode extension : CM (complete main)
    Format settings, Endianness : Big
    Codec ID : A_AC3
    Duration : 1h 0mn
    Bit rate mode : Constant
    Bit rate : 192 Kbps
    Channel(s) : 2 channels
    Channel positions : Front: L R
    Sampling rate : 48.0 KHz
    Bit depth : 16 bits
    Compression mode : Lossy
    Stream size : 83.7 MiB (2%)
    Title : @RK [PT-BR] Dolby Digital 2.0
    Language : Portuguese
    Default : Yes
    Forced : No
    DURATION : 01:00:57.984000000
    NUMBER_OF_FRAMES : 114312
    NUMBER_OF_BYTES : 87791616
    _STATISTICS_WRITING_APP : mkvmerge v15.0.0 ('Duel with the Devil') 64-bit
    _STATISTICS_WRITING_DATE_UTC : 2017-12-18 15:33:09
    _STATISTICS_TAGS : BPS DURATION NUMBER_OF_FRAMES NUMBER_OF_BYTES

    Link(s):
    Hidden Content:
    You must either reply or click 'Like' to see the hidden information contained here.
     
    Last edited: Jan 13, 2018 at 5:17 PM
  2. Loading...


  3. junior.ca

    junior.ca Well-Known Member

    Joined:
    Jun 1, 2014
    Messages:
    1,060
    Likes Received:
    46
    obrigado
     
    CELOBRAZiL likes this.
  4. Pavulon

    Pavulon Well-Known Member

    Joined:
    Mar 22, 2016
    Messages:
    3,808
    Likes Received:
    489
    thank you :D
     
    CELOBRAZiL likes this.
  5. Parrot6

    Parrot6 Member

    Joined:
    May 13, 2016
    Messages:
    96
    Likes Received:
    4
    thanks
     
    CELOBRAZiL likes this.
  6. Extazy4u2

    Extazy4u2 Well-Known Member

    Joined:
    Jan 26, 2017
    Messages:
    2,066
    Likes Received:
    207
  7. Muriliin

    Muriliin Member

    Joined:
    Apr 16, 2017
    Messages:
    166
    Likes Received:
    7
    ANITTTTTTTTTTA
     
  8. gleissoncoelho

    gleissoncoelho Active Member

    Joined:
    Aug 29, 2016
    Messages:
    353
    Likes Received:
    101
    thanks!!!!
     
    CELOBRAZiL likes this.
  9. anacarolsanchez

    anacarolsanchez Member

    Joined:
    Aug 30, 2017
    Messages:
    60
    Likes Received:
    15
  10. antinao

    antinao Member

    Joined:
    May 30, 2015
    Messages:
    428
    Likes Received:
    22
    thanks a lot
     
    CELOBRAZiL likes this.
  11. Adriano Everton

    Adriano Everton Well-Known Member

    Joined:
    Aug 25, 2014
    Messages:
    1,540
    Likes Received:
    150
  12. natcriss

    natcriss Member

    Joined:
    Jul 6, 2014
    Messages:
    34
    Likes Received:
    2
  13. franca.thais.89

    franca.thais.89 Member

    Joined:
    Oct 16, 2016
    Messages:
    143
    Likes Received:
    11
  14. Fabio Barbosa

    Fabio Barbosa Active Member

    Joined:
    Sep 28, 2015
    Messages:
    267
    Likes Received:
    121
  15. multimediafm

    multimediafm Well-Known Member Donor

    Joined:
    Mar 27, 2014
    Messages:
    11,057
    Likes Received:
    659
  16. Antonio Barros

    Antonio Barros Well-Known Member

    Joined:
    Nov 14, 2013
    Messages:
    1,053
    Likes Received:
    103