Alexandra Stan - Get Back (ASAP) (Maan Studio Remix) - Music Video (1080p)

Discussion in 'Music Videos' started by Hyrus, Mar 8, 2017.

  1. Hyrus

    Hyrus Arianator / Selenator / Victorian / Saxobeat / LBS Donor

    Joined:
    Feb 9, 2015
    Messages:
    1,354
    Likes Received:
    1,100
    [​IMG]
    [​IMG]
    [​IMG]
    [​IMG]
    [​IMG]

    Thumbnails:
    [​IMG]
    Video
    ID : 0
    Format : xvid
    Codec ID : xvid
    Duration : 3 min 22 s
    Bit rate : 6 359 kb/s
    Width : 1 920 pixels
    Height : 1 080 pixels
    Display aspect ratio : 16:9
    Frame rate : 25.000 FPS
    Bits/(Pixel*Frame) : 0.123
    Stream size : 153 MiB (95%)

    Audio
    ID : 1
    Format : MPEG Audio
    Format version : Version 1
    Format profile : Layer 3
    Mode : Joint stereo
    Codec ID : 55
    Codec ID/Hint : MP3
    Duration : 3 min 21 s
    Bit rate mode : Constant
    Bit rate : 320 kb/s
    Channel(s) : 2 channels
    Sampling rate : 48.0 kHz
    Compression mode : Lossy
    Stream size : 7.71 MiB (5%)
    Alignment : Aligned on interleaves
    Interleave, duration : 24 ms (0.60 video frame)
    Writing library : LAME3.98 (alpha)

    Download Link:
    Hidden Content:
    You must reply before you can see the hidden data contained here.
     
  2. Loading...


  3. nolynexor88

    nolynexor88 Well-Known Member

    Joined:
    Sep 29, 2015
    Messages:
    1,240
    Likes Received:
    82
    thank you
     
  4. fisherTW

    fisherTW Well-Known Member

    Joined:
    Dec 3, 2014
    Messages:
    1,707
    Likes Received:
    184
    Thank you.:)
     
  5. ImLoser

    ImLoser Well-Known Member

    Joined:
    May 12, 2016
    Messages:
    1,698
    Likes Received:
    57
    thanks
     
  6. benja

    benja Well-Known Member

    Joined:
    Jan 8, 2014
    Messages:
    1,346
    Likes Received:
    84
    Thank you
     
  7. rhea

    rhea Well-Known Member

    Joined:
    Jan 6, 2014
    Messages:
    7,095
    Likes Received:
    781
    thanks
     
  8. alan2014

    alan2014 Member

    Joined:
    Mar 24, 2014
    Messages:
    224
    Likes Received:
    5
    youtube?
     
  9. multimediafm

    multimediafm Well-Known Member Donor

    Joined:
    Mar 27, 2014
    Messages:
    11,053
    Likes Received:
    659
  10. Cesar

    Cesar Member

    Joined:
    Nov 11, 2013
    Messages:
    433
    Likes Received:
    14
    Thanks
     
  11. muratguren

    muratguren Member

    Joined:
    Mar 6, 2016
    Messages:
    922
    Likes Received:
    12
    thank you
     
  12. Bookerstp

    Bookerstp Member

    Joined:
    Feb 25, 2016
    Messages:
    215
    Likes Received:
    5
  13. skyisup

    skyisup Member

    Joined:
    Jul 21, 2016
    Messages:
    200
    Likes Received:
    0
    Thanks
     
  14. franklele

    franklele Well-Known Member

    Joined:
    Nov 11, 2013
    Messages:
    2,205
    Likes Received:
    130
    thank you very much
     
  15. BsMx

    BsMx Member

    Joined:
    Oct 5, 2014
    Messages:
    174
    Likes Received:
    2
    thsnkx
     
  16. andy80

    andy80 Member

    Joined:
    Sep 25, 2016
    Messages:
    77
    Likes Received:
    10
    thanks bro
     
  17. hankdt001

    hankdt001 Member

    Joined:
    Jan 21, 2016
    Messages:
    104
    Likes Received:
    3
  18. zuluka

    zuluka Member

    Joined:
    Jul 9, 2016
    Messages:
    846
    Likes Received:
    13
    thanks
     
  19. 12fer12

    12fer12 Member

    Joined:
    Sep 4, 2016
    Messages:
    34
    Likes Received:
    0
    thanks
     
  20. Vinny

    Vinny Well-Known Member

    Joined:
    Dec 26, 2013
    Messages:
    3,617
    Likes Received:
    30
    Thank U!
     
  21. Zeeh

    Zeeh Rallyforrivers.org

    Joined:
    Mar 20, 2015
    Messages:
    744
    Likes Received:
    30
    thanks