Alanis Morissette - Thank U MTVHD 1080i HDTV DD2.0 H.264 CELOBRAZiL-HDMania

Discussion in 'MTV HD' started by CELOBRAZiL, Sep 20, 2017.

  1. CELOBRAZiL

    CELOBRAZiL Well-Known Member Capper V . I . P. Donor

    Joined:
    Oct 2, 2013
    Messages:
    4,256
    Likes Received:
    13,430
    Alanis Morissette - Thank U MTVHD 1080i HDTV DD2.0 H.264 CELOBRAZiL-HDMania

    [​IMG]



    Format : MPEG-TS
    File size : 203 MiB
    Duration : 4mn 14s
    Overall bit rate mode : Variable
    Overall bit rate : 6 702 Kbps

    Video
    ID : 2760 (0xAC8)
    Menu ID : 5040 (0x13B0)
    Format : AVC
    Format/Info : Advanced Video Codec
    Format profile : [email protected]
    Format settings, CABAC : Yes
    Format settings, ReFrames : 3 frames
    Codec ID : 27
    Duration : 4mn 17s
    Bit rate : 6 177 Kbps
    Width : 1 920 pixels
    Height : 1 080 pixels
    Display aspect ratio : 16:9
    Frame rate : 29.970 fps
    Color space : YUV
    Chroma subsampling : 4:2:0
    Bit depth : 8 bits
    Scan type : MBAFF
    Scan order : Top Field First
    Bits/(Pixel*Frame) : 0.099
    Stream size : 189 MiB (93%)

    Audio
    ID : 2725 (0xAA5)
    Menu ID : 5040 (0x13B0)
    Format : AC-3
    Format/Info : Audio Coding 3
    Mode extension : CM (complete main)
    Format settings, Endianness : Big
    Codec ID : 129
    Duration : 4mn 17s
    Bit rate mode : Constant
    Bit rate : 192 Kbps
    Channel(s) : 2 channels
    Channel positions : Front: L R
    Sampling rate : 48.0 KHz
    Bit depth : 16 bits
    Compression mode : Lossy
    Stream size : 5.88 MiB (3%)
    Language : English

    Text #1
    ID : 2760 (0xAC8)-CC1
    Menu ID : 5040 (0x13B0)
    Format : EIA-608
    Muxing mode : SCTE 128 / DTVCC Transport
    Muxing mode, more info : Muxed in Video #1
    Duration : 4mn 17s
    Bit rate mode : Constant
    Stream size : 0.00 Byte (0%)

    Text #2
    ID : 2760 (0xAC8)-CC4
    Menu ID : 5040 (0x13B0)
    Format : EIA-608
    Muxing mode : SCTE 128 / DTVCC Transport
    Muxing mode, more info : Muxed in Video #1
    Duration : 4mn 17s
    Bit rate mode : Constant
    Stream size : 0.00 Byte (0%)

    Text #3
    ID : 2760 (0xAC8)-1
    Menu ID : 5040 (0x13B0)
    Format : EIA-708
    Muxing mode : SCTE 128 / DTVCC Transport
    Muxing mode, more info : Muxed in Video #1
    Duration : 4mn 17s
    Bit rate mode : Constant
    Stream size : 0.00 Byte (0%)

    Link(s):
    Hidden Content:
    You must either reply or click 'Like' to see the hidden information contained here.
     
  2. CELOBRAZiL

    CELOBRAZiL Well-Known Member Capper V . I . P. Donor

    Joined:
    Oct 2, 2013
    Messages:
    4,256
    Likes Received:
    13,430
  3. Djodjara

    Djodjara Gwen Fan Capper

    Joined:
    Sep 6, 2014
    Messages:
    860
    Likes Received:
    1,563
    Thanks, Celo!
     
    CELOBRAZiL likes this.
  4. adam dark

    adam dark Video Music Lover <3 V . I . P.

    Joined:
    Dec 5, 2013
    Messages:
    2,620
    Likes Received:
    5,041
    thank you Celo <3
     
    CELOBRAZiL likes this.
  5. rvden

    rvden Well-Known Member

    Joined:
    Apr 9, 2017
    Messages:
    433
    Likes Received:
    284
    Thank you!
     
    CELOBRAZiL likes this.
  6. rhea

    rhea Well-Known Member

    Joined:
    Jan 6, 2014
    Messages:
    7,147
    Likes Received:
    798
    thanks :)
     
    CELOBRAZiL likes this.
  7. pajpajpaj

    pajpajpaj Active Member

    Joined:
    Feb 11, 2017
    Messages:
    1,013
    Likes Received:
    10
    thanksss
     
    CELOBRAZiL likes this.
  8. Manuel Moon

    Manuel Moon Member

    Joined:
    Sep 18, 2016
    Messages:
    61
    Likes Received:
    4
    Thanks from Peru
     
    CELOBRAZiL likes this.
  9. rikylouis14

    rikylouis14 Well-Known Member

    Joined:
    Jun 27, 2016
    Messages:
    769
    Likes Received:
    471
    obrigado
     
  10. ghhhhk

    ghhhhk New Member

    Joined:
    Jan 13, 2018
    Messages:
    10
    Likes Received:
    1
    thnx!