Adele - Send My Love (To Your New Lover) (BridgeHD-1080i-Olgold)-HDMania

Discussion in 'Bridge HD' started by Olgold, Oct 17, 2016.

  1. Olgold

    Olgold Well-Known Member Capper

    Joined:
    Aug 19, 2015
    Messages:
    436
    Likes Received:
    1,721
    Adele - Send My Love (To Your New Lover)
    [​IMG]
    General
    Format : MPEG-TS
    File size : 235 MiB
    Duration : 3 min 38 s
    Overall bit rate mode : Variable
    Overall bit rate : 8 956 kb/s

    Video
    Format : AVC
    Format/Info : Advanced Video Codec
    Format profile : [email protected]
    Format settings, CABAC : Yes
    Format settings, ReFrames : 4 frames
    Format settings, GOP : M=4, N=28
    Duration : 3 min 37 s
    Bit rate : 8 320 kb/s
    Width : 1 920 pixels
    Height : 1 080 pixels
    Display aspect ratio : 16:9
    Frame rate : 25.000 FPS
    Standard : Component
    Color space : YUV
    Chroma subsampling : 4:2:0
    Bit depth : 8 bits
    Scan type : Interlaced
    Scan type, store method : Separated fields
    Scan order : Top Field First
    Bits/(Pixel*Frame) : 0.160
    Stream size : 215 MiB (92%)
    Color range : Limited

    Audio
    Format : MPEG Audio
    Format version : Version 1
    Format profile : Layer 2
    Duration : 3 min 38 s
    Bit rate mode : Constant
    Bit rate : 192 kb/s
    Channel(s) : 2 channels
    Sampling rate : 48.0 kHz
    Compression mode : Lossy
    Delay relative to video : -724 ms
    Stream size : 5.01 MiB (2%)
    Password: Olgold
    Hidden Content:
    You must reply before you can see the hidden data contained here.
     
    lyana94, rhea and CELOBRAZiL like this.
  2. Loading...


  3. CELOBRAZiL

    CELOBRAZiL Well-Known Member Capper V . I . P. Donor

    Joined:
    Oct 2, 2013
    Messages:
    4,248
    Likes Received:
    13,373
    Thank you so much! :)
     
  4. rhea

    rhea Well-Known Member

    Joined:
    Jan 6, 2014
    Messages:
    7,111
    Likes Received:
    788
    thank you so much :)
     
  5. Lucky

    Lucky Active Member

    Joined:
    Sep 26, 2016
    Messages:
    390
    Likes Received:
    36
    thanks
     
  6. daniloo augusto

    daniloo augusto Member

    Joined:
    Jan 17, 2017
    Messages:
    138
    Likes Received:
    3
  7. revilo18

    revilo18 Well-Known Member

    Joined:
    May 26, 2016
    Messages:
    1,891
    Likes Received:
    85
    thankkk
     
  8. lyana94

    lyana94 Well-Known Member

    Joined:
    Jul 5, 2017
    Messages:
    1,212
    Likes Received:
    42
    thanks
     
  9. trevorme

    trevorme Member

    Joined:
    Jan 12, 2017
    Messages:
    327
    Likes Received:
    10
    thank you
     
  10. lovegungun

    lovegungun Member

    Joined:
    Dec 8, 2017
    Messages:
    73
    Likes Received:
    2